Поиск

1998 Terry Callier - I Just Can't Help Myself {MCA 380 511-2} [CD]

1998 Terry Callier - I Just Can't Help Myself {MCA 380 511-2} [CD]
Стили:
Издатель (лейбл):
Треклист:

01. (I Just Can't Help Myself) I Don't Want Nobody Else [3:16]
02. Brown-Eyed Lady [3:20]
03. Gotta Get Closer To You [3:25]
04. Satin Doll [4:18]
05. Until Tomorrow [5:37]
06. Alley-Wind Song [9:06]
07. Can't Catch The Trane [3:54]
08. Bowlin' Green [7:58]

Доп. инфо:

Страна-производитель диска: England
Год издания диска: 1998
Издатель (лейбл): MCA Records
Номер по каталогу: 380 511-2
Страна: USA
Аудио кодек: FLAC (*.flac)
Тип рипа: tracks+.cue
Битрейт аудио: lossless
Продолжительность: 40:55
Источник: Waffles.fm
Наличие сканов в содержимом раздачи: нет

Лог создания рипа
EAC extraction logfile from 24. July 2008, 8:13 for CD
Terry Callier / I Just Can't Help Myself
Used drive  : HL-DT-STDVDRAM GSA-4082B   Adapter: 1  ID: 1
Read mode   : Secure with NO C2, accurate stream, disable cache
Read offset correction : 667
Overread into Lead-In and Lead-Out : No
Used output format : C:\Program Files\FLAC\flac.exe   (User Defined Encoder)
                     128 kBit/s
                     Additional command line options : -V -8 -T "artist=%a" -T "title=%t" -T "album=%g" -T "date=%y" -T "tracknumber=%n" -T "genre=%m" %s
Other options      :
    Fill up missing offset samples with silence : Yes
    Delete leading and trailing silent blocks : No
    Native Win32 interface for Win NT & 2000
Track  1
     Filename C:\Documents and Settings\USER\Desktop\New Folder\01 - (I Just Can't Help Myself) I Don't Want Nobody Else.wav
     Pre-gap length  0:00:02.49
     Peak level 99.9 %
     Track quality 100.0 %
     Test CRC 919F28FE
     Copy CRC 919F28FE
     Copy OK
Track  2
     Filename C:\Documents and Settings\USER\Desktop\New Folder\02 - Brown-Eyed Lady.wav
     Pre-gap length  0:00:01.98
     Peak level 100.0 %
     Track quality 100.0 %
     Test CRC D25BD1A4
     Copy CRC D25BD1A4
     Copy OK
Track  3
     Filename C:\Documents and Settings\USER\Desktop\New Folder\03 - Gotta Get Closer To You.wav
     Pre-gap length  0:00:01.98
     Peak level 90.2 %
     Track quality 100.0 %
     Test CRC A39A3317
     Copy CRC A39A3317
     Copy OK
Track  4
     Filename C:\Documents and Settings\USER\Desktop\New Folder\04 - Satin Doll.wav
     Pre-gap length  0:00:01.98
     Peak level 79.4 %
     Track quality 100.0 %
     Test CRC 7C8D02EE
     Copy CRC 7C8D02EE
     Copy OK
Track  5
     Filename C:\Documents and Settings\USER\Desktop\New Folder\05 - Until Tomorrow.wav
     Pre-gap length  0:00:01.97
     Peak level 84.9 %
     Track quality 100.0 %
     Test CRC 4F92A21F
     Copy CRC 4F92A21F
     Copy OK
Track  6
     Filename C:\Documents and Settings\USER\Desktop\New Folder\06 - Alley-Wind Song.wav
     Pre-gap length  0:00:01.98
     Peak level 81.7 %
     Track quality 99.9 %
     Test CRC A7318BAB
     Copy CRC A7318BAB
     Copy OK
Track  7
     Filename C:\Documents and Settings\USER\Desktop\New Folder\07 - Can't Catch The Trane.wav
     Pre-gap length  0:00:01.98
     Peak level 100.0 %
     Track quality 100.0 %
     Test CRC A8955CF0
     Copy CRC A8955CF0
     Copy OK
Track  8
     Filename C:\Documents and Settings\USER\Desktop\New Folder\08 - Bowlin' Green.wav
     Pre-gap length  0:00:01.98
     Peak level 75.3 %
     Track quality 100.0 %
     Test CRC 766EA6E7
     Copy CRC 766EA6E7
     Copy OK
No errors occured
End of status report
Содержание индексной карты (.CUE)
REM GENRE Jazz
REM DATE 1973
PERFORMER "Terry Callier"
TITLE "I Just Can't Help Myself"
FILE "01 - (I Just Can't Help Myself) I Don't Want Nobody Else.flac" WAVE
  TRACK 01 AUDIO
    TITLE "(I Just Can't Help Myself) I Don't Want Nobody Else"
    INDEX 01 00:00:00
FILE "02 - Brown-Eyed Lady.flac" WAVE
  TRACK 02 AUDIO
    TITLE "Brown-Eyed Lady"
    INDEX 01 00:00:00
FILE "03 - Gotta Get Closer To You.flac" WAVE
  TRACK 03 AUDIO
    TITLE "Gotta Get Closer To You"
    INDEX 01 00:00:00
FILE "04 - Satin Doll.flac" WAVE
  TRACK 04 AUDIO
    TITLE "Satin Doll"
    INDEX 01 00:00:00
FILE "05 - Until Tomorrow.flac" WAVE
  TRACK 05 AUDIO
    TITLE "Until Tomorrow"
    INDEX 01 00:00:00
FILE "06 - Alley-Wind Song.flac" WAVE
  TRACK 06 AUDIO
    TITLE "Alley-Wind Song"
    INDEX 01 00:00:00
FILE "07 - Can't Catch The Trane.flac" WAVE
  TRACK 07 AUDIO
    TITLE "Can't Catch The Trane"
    INDEX 01 00:00:00
FILE "08 - Bowlin' Green.flac" WAVE
  TRACK 08 AUDIO
    TITLE "Bowlin' Green"
    INDEX 01 00:00:00
08:22
796
Нет комментариев. Ваш будет первым!