Поиск

1998 Richard Carr & Bucky Pizzarelli - String Thing {Savant} [CD]

1998 Richard Carr & Bucky Pizzarelli - String Thing {Savant} [CD]
Стили:
Дата записи диска:
15 июля 1997
Место записи:
Tedesco Studios, Paramus, NJ, USA
Дата издания диска:
26 мая 1998
Издатель (лейбл):
Номер по каталогу:
SCD 2010
Носитель:
CD
Тип рипа:
tracks+.cue
Аудиокодек:
FLAC (*.flac)
Битрейт аудио:
lossless
Время звучания:
00:48:49
Наличие сканов:
только обложка
Страна-производитель диска (релиза):
USA
Релизёр (источник):
Yungin

01. The Boulevard of Broken Dreams (Dubin-Warren) - 6:22
02. Willow Weep for Me (Ronell) - 9:03
03. We've Got the Moon and Sixpence (Levant-Grey) - 3:02
04. Star-Crossed Lovers (Ellington-Strayhorn) - 4:28
05. Strictly Business (Carr) - 2:34
06. St. Elsewhere (Carr) - 3:15
07. Bloodcount (Ellington) - 4:27
08. Fair Rosemary (Schon Rosmarin) (Kreisler) - 4:51
09. Hit the Road to Dreamland (Arlen-Mercer) - 4:22
10. Crazy Rhythm (Caesar-Kahn-Meyer) - 3:33
11. Send in the Clowns (Sondheim) - 2:52

Состав:
  • Richard Carr    Composer, Producer, Violin
  • Bucky Pizzarelli    Guitar
  • Jon Rosenberg    Engineer
Лог создания рипа
Exact Audio Copy V1.5 from 20. February 2020

EAC extraction logfile from 23. August 2020, 13:35

Richard Carr / Bucky Pizzarelli / String Thing

Used drive  : TSSTcorpCDDVDW SN-208FB   Adapter: 1  ID: 1

Read mode               : Secure
Utilize accurate stream : Yes
Defeat audio cache      : Yes
Make use of C2 pointers : No

Read offset correction                      : 6
Overread into Lead-In and Lead-Out          : No
Fill up missing offset samples with silence : Yes
Delete leading and trailing silent blocks   : No
Null samples used in CRC calculations       : Yes
Used interface                              : Native Win32 interface for Win NT & 2000
Gap handling                                : Appended to previous track

Used output format              : User Defined Encoder
Selected bitrate                : 1024 kBit/s
Quality                         : High
Add ID3 tag                     : No
Command line compressor         : C:\Program Files (x86)\Exact Audio Copy\Flac\flac.exe
Additional command line options : -8 -V -T "ARTIST=%artist%" -T "TITLE=%title%" -T "ALBUM=%albumtitle%" -T "DATE=%year%" -T "TRACKNUMBER=%tracknr%" -T "GENRE=%genre%" -T "PERFORMER=%albuminterpret%" -T "COMPOSER=%composer%" -T "ALBUMARTIST=%albumartist%" -T "DISCNUMBER=%cdnumber%" -T "TOTALDISCS=%totalcds%" -T "TOTALTRACKS=%numtracks%" -T "COMMENT=%comment%" %source% -o %dest%

TOC of the extracted CD

     Track |   Start  |  Length  | Start sector | End sector
    ---------------------------------------------------------
        1  |  0:00.00 |  6:22.10 |         0    |    28659
        2  |  6:22.10 |  9:02.52 |     28660    |    69361
        3  | 15:24.62 |  3:02.13 |     69362    |    83024
        4  | 18:27.00 |  4:28.12 |     83025    |   103136
        5  | 22:55.12 |  2:34.33 |    103137    |   114719
        6  | 25:29.45 |  3:15.00 |    114720    |   129344
        7  | 28:44.45 |  4:27.30 |    129345    |   149399
        8  | 33:12.00 |  4:50.74 |    149400    |   171223
        9  | 38:02.74 |  4:21.60 |    171224    |   190858
       10  | 42:24.59 |  3:33.16 |    190859    |   206849
       11  | 45:58.00 |  2:51.50 |    206850    |   219724

Track  1

     Filename Z:\Music\Richard Carr - Bucky Pizzarelli - String Thing (1998) [FLAC] {SCD 2010}\01 - The Boulevard of Broken Dreams.wav

     Pre-gap length  0:00:02.00

     Peak level 97.3 %
     Extraction speed 2.4 X
     Track quality 99.9 %
     Test CRC 8954A8CE
     Copy CRC 8954A8CE
     Accurately ripped (confidence 4)  [43EACE5F]  (AR v2)
     Copy OK

Track  2

     Filename Z:\Music\Richard Carr - Bucky Pizzarelli - String Thing (1998) [FLAC] {SCD 2010}\02 - Willow Weep for Me.wav

     Pre-gap length  0:00:03.72

     Peak level 92.5 %
     Extraction speed 3.4 X
     Track quality 100.0 %
     Test CRC E1C567AD
     Copy CRC E1C567AD
     Accurately ripped (confidence 4)  [BFFB4C9B]  (AR v2)
     Copy OK

Track  3

     Filename Z:\Music\Richard Carr - Bucky Pizzarelli - String Thing (1998) [FLAC] {SCD 2010}\03 - We’ve Got the Moon and Sixpence.wav

     Pre-gap length  0:00:03.73

     Peak level 97.3 %
     Extraction speed 3.2 X
     Track quality 100.0 %
     Test CRC 12CB3E9E
     Copy CRC 12CB3E9E
     Accurately ripped (confidence 4)  [161BFCEB]  (AR v2)
     Copy OK

Track  4

     Filename Z:\Music\Richard Carr - Bucky Pizzarelli - String Thing (1998) [FLAC] {SCD 2010}\04 - Star-Crossed Lovers.wav

     Pre-gap length  0:00:03.10

     Peak level 66.4 %
     Extraction speed 3.7 X
     Track quality 100.0 %
     Test CRC 488D1D10
     Copy CRC 488D1D10
     Accurately ripped (confidence 4)  [7CAB80DE]  (AR v2)
     Copy OK

Track  5

     Filename Z:\Music\Richard Carr - Bucky Pizzarelli - String Thing (1998) [FLAC] {SCD 2010}\05 - Strictly Business.wav

     Pre-gap length  0:00:03.73

     Peak level 96.8 %
     Extraction speed 3.5 X
     Track quality 100.0 %
     Test CRC 530CCE78
     Copy CRC 530CCE78
     Accurately ripped (confidence 4)  [FD495E08]  (AR v2)
     Copy OK

Track  6

     Filename Z:\Music\Richard Carr - Bucky Pizzarelli - String Thing (1998) [FLAC] {SCD 2010}\06 - St. Elsewhere.wav

     Pre-gap length  0:00:03.72

     Peak level 99.0 %
     Extraction speed 3.8 X
     Track quality 100.0 %
     Test CRC BCC35CA9
     Copy CRC BCC35CA9
     Accurately ripped (confidence 4)  [81C5DCE4]  (AR v2)
     Copy OK

Track  7

     Filename Z:\Music\Richard Carr - Bucky Pizzarelli - String Thing (1998) [FLAC] {SCD 2010}\07 - Bloodcount.wav

     Pre-gap length  0:00:03.73

     Peak level 98.2 %
     Extraction speed 4.1 X
     Track quality 100.0 %
     Test CRC 469D9459
     Copy CRC 469D9459
     Accurately ripped (confidence 4)  [9E194A3A]  (AR v2)
     Copy OK

Track  8

     Filename Z:\Music\Richard Carr - Bucky Pizzarelli - String Thing (1998) [FLAC] {SCD 2010}\08 - Fair Rosemary (Schön Rosmarin).wav

     Pre-gap length  0:00:03.73

     Peak level 83.9 %
     Extraction speed 4.4 X
     Track quality 100.0 %
     Test CRC 82710C7E
     Copy CRC 82710C7E
     Accurately ripped (confidence 4)  [74672A1C]  (AR v2)
     Copy OK

Track  9

     Filename Z:\Music\Richard Carr - Bucky Pizzarelli - String Thing (1998) [FLAC] {SCD 2010}\09 - Hit the Road to Dreamland.wav

     Pre-gap length  0:00:03.13

     Peak level 83.7 %
     Extraction speed 4.5 X
     Track quality 100.0 %
     Test CRC EFF3EF55
     Copy CRC EFF3EF55
     Accurately ripped (confidence 4)  [1C8614DE]  (AR v2)
     Copy OK

Track 10

     Filename Z:\Music\Richard Carr - Bucky Pizzarelli - String Thing (1998) [FLAC] {SCD 2010}\10 - Crazy Rhythm.wav

     Pre-gap length  0:00:03.73

     Peak level 95.9 %
     Extraction speed 4.5 X
     Track quality 100.0 %
     Test CRC 0FD3A466
     Copy CRC 0FD3A466
     Accurately ripped (confidence 4)  [CFD3BA1D]  (AR v2)
     Copy OK

Track 11

     Filename Z:\Music\Richard Carr - Bucky Pizzarelli - String Thing (1998) [FLAC] {SCD 2010}\11 - Send in the Clowns.wav

     Pre-gap length  0:00:04.84

     Peak level 39.8 %
     Extraction speed 3.4 X
     Track quality 99.9 %
     Test CRC CB10A102
     Copy CRC CB10A102
     Accurately ripped (confidence 4)  [CB3918F7]  (AR v2)
     Copy OK

All tracks accurately ripped

No errors occurred

End of status report

---- CUETools DB Plugin V2.1.6

[CTDB TOCID: wac24z1W.xAB70HzZTiqp2lz.iQ-] found
Submit result: wac24z1W.xAB70HzZTiqp2lz.iQ- has been confirmed
Track | CTDB Status
  1   | (2/2) Accurately ripped
  2   | (2/2) Accurately ripped
  3   | (2/2) Accurately ripped
  4   | (2/2) Accurately ripped
  5   | (2/2) Accurately ripped
  6   | (2/2) Accurately ripped
  7   | (2/2) Accurately ripped
  8   | (2/2) Accurately ripped
  9   | (2/2) Accurately ripped
 10   | (2/2) Accurately ripped
 11   | (2/2) Accurately ripped

==== Log checksum 602DBC098EAA5BD1FAAB0750EFECE2B650BD28B5523E74C137E9FD59ECD18172 ====
14:03
578
Нет комментариев. Ваш будет первым!