Поиск

1998 Kip Hanrahan - A Thousands Nights And A Night (Shadow Night 1) {Justin Time JTAC 1042-2} [CD]

1998 Kip Hanrahan - A Thousands Nights And A Night (Shadow Night 1) {Justin Time JTAC 1042-2} [CD]
Треклист:

01.- Shahrazade on the Opening of the First Shadow Night - 2:30
02.- Blue Shalimah's Tale, Opening - 6:07
03.- Blue Shalimah's Tale, Continuing - 3:05
04.- Shahrazade's First Shadow Night - 2:30
05.- The Blonde Woman Escapes - 4:42
06.- The Hasheater At The Gates of the Summer City - 3:23
07.- and the Revival of the Thousand Pound Elephant - 6:00
08.- A Woman's Trick - 2:59
09.- Ghanim ibn Ayyub's Tale and Kut al-Kulub - 8:01
10.- The Jewish Doctor's Tale Continues - 3:06
11.- Shahrazade Adrift - 3:08
12.- The Sleeper Awakened - 5:18
13.- Zummarud's Tale Continues with the Theves - 3:39
14.- The Brown Eyed Woman Escapes - 1:21
15.- The Res Headed Woman Remains with the Merchant - 4:42
16.- Shahrazade and the Closing of the First Shadow Night - 3:37

Состав:
  • Bass – Andy Gonzalez, Fernando Saunders, Steve Swallow
  • Congas – Abraham Rodriguez, Anthony Carrillo*, Eric Valez, Puntilla Orlando Rios*, Paoli Mejias, Richie Flores
  • Drums [Traps] – Horacio "El Negro" Hernandez, J.T. Lewis, Robbie Ameen*
  • Guitar – Brandon Ross, Eric Schenkman
  • Percussion [Chekere] – Milton Cardona
  • Piano – Don Pullen, Michael Cain
  • Producer, Voice, Percussion – Kip Hanrahan
  • Saxophone [Alto] – Henry Threadgill
  • Violin – Alfredo Triff, Billy Bang
  • Voice – Carmen Lundy, Jennifer Resnick
  • Voice, Saxophone [Tenor] – Charles Neville

Жанр: Jazz,Contemporary Jazz
Носитель: CD
Страна-производитель диска (релиза): Canada
Год издания: 1998
Издатель (лейбл): Justin Time
Номер по каталогу: JTAC 1042-2
Страна исполнителя (группы): US
Аудиокодек: FLAC (*.flac)
Тип рипа: tracks+.cue
Битрейт аудио: lossless
Продолжительность: 01:04:07
Источник: собственный рип
Наличие сканов в содержимом раздачи: да

Лог создания рипа
Exact Audio Copy V1.3 from 2. September 2016

Отчёт EAC об извлечении, выполненном 30. января 2019, 14:32

Kip Hanrahan / A Thousands Nights And A Night (Shadow Night 1)

Дисковод: ASUS    DRW-24B3ST   Adapter: 1  ID: 0

Режим чтения                 : Достоверность
Использование точного потока : Да
Отключение кэша аудио        : Да
Использование указателей C2  : Нет

Коррекция смещения при чтении                     : 6
Способность читать области Lead-in и Lead-out     : Нет
Заполнение пропущенных сэмплов тишиной            : Да
Удаление блоков с тишиной в начале и конце        : Нет
При вычислениях CRC использовались нулевые сэмплы : Да
Интерфейс                                         : Встроенный Win32-интерфейс для Win NT/2000
Обработка зазоров                                 : Добавлено к предыдущему треку

Выходной формат          : Пользовательский кодировщик
Выбранный битрейт        : 1024 kBit/s
Качество                 : Высокий
Добавление ID3-тега      : Нет
Утилита сжатия           : C:\Program Files (x86)\Exact Audio Copy\Flac\flac.exe
Дополнительные параметры : -V -8 -T "Genre=%genre%" -T "Artist=%artist%" -T "Title=%title%" -T "Album=%albumtitle%" -T "Date=%year%" -T "Tracknumber=%tracknr%" -T "Comment=%comment%" %source%

TOC извлечённого CD

     Трек |   Старт  | Длительность | Начальный сектор | Конечный сектор
    ---------------------------------------------------------------------
       1  |  0:00.00 |    2:30.05   |           0      |      11254
       2  |  2:30.05 |    6:07.17   |       11255      |      38796
       3  |  8:37.22 |    3:04.50   |       38797      |      52646
       4  | 11:41.72 |    2:29.50   |       52647      |      63871
       5  | 14:11.47 |    4:41.53   |       63872      |      84999
       6  | 18:53.25 |    3:23.00   |       85000      |     100224
       7  | 22:16.25 |    5:59.45   |      100225      |     127194
       8  | 28:15.70 |    2:59.12   |      127195      |     140631
       9  | 31:15.07 |    8:01.25   |      140632      |     176731
      10  | 39:16.32 |    3:06.30   |      176732      |     190711
      11  | 42:22.62 |    3:08.18   |      190712      |     204829
      12  | 45:31.05 |    5:17.40   |      204830      |     228644
      13  | 50:48.45 |    3:39.00   |      228645      |     245069
      14  | 54:27.45 |    1:21.00   |      245070      |     251144
      15  | 55:48.45 |    4:41.70   |      251145      |     272289
      16  | 60:30.40 |    3:36.47   |      272290      |     288536

Трек  1

     Имя файла C:\Users\Сергей\Documents\EAC\01. Kip Hanrahan -  Shahrazade on the Opening of the First Shadow Night.wav

     Длина предзазора  0:00:02.00

     Пиковый уровень 98.0 %
     Скорость извлечения 2.3 X
     Качество трека 99.9 %
     CRC теста 19A1D6ED
     CRC копии 19A1D6ED
     Точное извлечение (достоверность 6)  [55B8449C]  (AR v2)
     Копирование... OK

Трек  2

     Имя файла C:\Users\Сергей\Documents\EAC\02. Kip Hanrahan -  Blue Shalimah's Tale, Opening.wav

     Пиковый уровень 100.0 %
     Скорость извлечения 4.1 X
     Качество трека 100.0 %
     CRC теста 5808082B
     CRC копии 5808082B
     Точное извлечение (достоверность 6)  [4EADEDFD]  (AR v2)
     Копирование... OK

Трек  3

     Имя файла C:\Users\Сергей\Documents\EAC\03. Kip Hanrahan -  Blue Shalimah's Tale, Continuing.wav

     Пиковый уровень 99.0 %
     Скорость извлечения 4.2 X
     Качество трека 100.0 %
     CRC теста EC982392
     CRC копии EC982392
     Точное извлечение (достоверность 6)  [BDA48824]  (AR v2)
     Копирование... OK

Трек  4

     Имя файла C:\Users\Сергей\Documents\EAC\04. Kip Hanrahan -  Shahrazade's First Shadow Night.wav

     Пиковый уровень 99.9 %
     Скорость извлечения 4.2 X
     Качество трека 100.0 %
     CRC теста C79F6C81
     CRC копии C79F6C81
     Точное извлечение (достоверность 6)  [D56BB3F2]  (AR v2)
     Копирование... OK

Трек  5

     Имя файла C:\Users\Сергей\Documents\EAC\05. Kip Hanrahan -  The Blonde Woman Escapes.wav

     Пиковый уровень 100.0 %
     Скорость извлечения 4.9 X
     Качество трека 100.0 %
     CRC теста 9D55C1E3
     CRC копии 9D55C1E3
     Точное извлечение (достоверность 6)  [1BDADC64]  (AR v2)
     Копирование... OK

Трек  6

     Имя файла C:\Users\Сергей\Documents\EAC\06. Kip Hanrahan -  The Hasheater At The Gates of the Summer City.wav

     Пиковый уровень 100.0 %
     Скорость извлечения 4.9 X
     Качество трека 100.0 %
     CRC теста 6D9A992E
     CRC копии 6D9A992E
     Точное извлечение (достоверность 6)  [BC2588C3]  (AR v2)
     Копирование... OK

Трек  7

     Имя файла C:\Users\Сергей\Documents\EAC\07. The Hasheater In Judgement -  and the Revival of the Thousand Pound Elephant.wav

     Пиковый уровень 100.0 %
     Скорость извлечения 5.6 X
     Качество трека 100.0 %
     CRC теста 0142CCBF
     CRC копии 0142CCBF
     Точное извлечение (достоверность 6)  [8C77DB5B]  (AR v2)
     Копирование... OK

Трек  8

     Имя файла C:\Users\Сергей\Documents\EAC\08. Kip Hanrahan -  A Woman's Trick.wav

     Пиковый уровень 99.9 %
     Скорость извлечения 5.4 X
     Качество трека 100.0 %
     CRC теста 60A6AEF3
     CRC копии 60A6AEF3
     Точное извлечение (достоверность 6)  [932B7F01]  (AR v2)
     Копирование... OK

Трек  9

     Имя файла C:\Users\Сергей\Documents\EAC\09. Kip Hanrahan -  Ghanim ibn Ayyub's Tale and Kut al-Kulub.wav

     Пиковый уровень 100.0 %
     Скорость извлечения 6.4 X
     Качество трека 100.0 %
     CRC теста 50FE12D3
     CRC копии 50FE12D3
     Точное извлечение (достоверность 6)  [35F30EE9]  (AR v2)
     Копирование... OK

Трек 10

     Имя файла C:\Users\Сергей\Documents\EAC\10. Kip Hanrahan -  The Jewish Doctor's Tale Continues.wav

     Пиковый уровень 100.0 %
     Скорость извлечения 6.0 X
     Качество трека 100.0 %
     CRC теста C2D79CC1
     CRC копии C2D79CC1
     Точное извлечение (достоверность 6)  [13FDE778]  (AR v2)
     Копирование... OK

Трек 11

     Имя файла C:\Users\Сергей\Documents\EAC\11. Kip Hanrahan -  Shahrazade Adrift.wav

     Длина предзазора  0:00:00.01

     Пиковый уровень 92.7 %
     Скорость извлечения 4.7 X
     Качество трека 99.9 %
     CRC теста D3712D85
     CRC копии D3712D85
     Точное извлечение (достоверность 6)  [25BDF02F]  (AR v2)
     Копирование... OK

Трек 12

     Имя файла C:\Users\Сергей\Documents\EAC\12. Kip Hanrahan -  The Sleeper Awakened.wav

     Пиковый уровень 100.0 %
     Скорость извлечения 6.8 X
     Качество трека 100.0 %
     CRC теста 09F99223
     CRC копии 09F99223
     Точное извлечение (достоверность 6)  [B51C90A5]  (AR v2)
     Копирование... OK

Трек 13

     Имя файла C:\Users\Сергей\Documents\EAC\13. Kip Hanrahan -  Zummarud's Tale Continues with the Theves.wav

     Пиковый уровень 99.9 %
     Скорость извлечения 6.7 X
     Качество трека 100.0 %
     CRC теста F1C406B6
     CRC копии F1C406B6
     Точное извлечение (достоверность 6)  [B9DB94A8]  (AR v2)
     Копирование... OK

Трек 14

     Имя файла C:\Users\Сергей\Documents\EAC\14. Kip Hanrahan -  The Brown Eyed Woman Escapes.wav

     Пиковый уровень 100.0 %
     Скорость извлечения 3.3 X
     Качество трека 99.8 %
     CRC теста BAD5AD2D
     CRC копии BAD5AD2D
     Точное извлечение (достоверность 6)  [83C4FD95]  (AR v2)
     Копирование... OK

Трек 15

     Имя файла C:\Users\Сергей\Documents\EAC\15. Kip Hanrahan -  The Res Headed Woman Remains with the Merchant.wav

     Пиковый уровень 100.0 %
     Скорость извлечения 7.1 X
     Качество трека 100.0 %
     CRC теста E0BA4E23
     CRC копии E0BA4E23
     Точное извлечение (достоверность 6)  [D3EE7FAC]  (AR v2)
     Копирование... OK

Трек 16

     Имя файла C:\Users\Сергей\Documents\EAC\16. Kip Hanrahan -  Shahrazade and the Closing of the First Shadow Night.wav

     Пиковый уровень 98.9 %
     Скорость извлечения 7.1 X
     Качество трека 100.0 %
     CRC теста 43D957A6
     CRC копии 43D957A6
     Точное извлечение (достоверность 6)  [36022362]  (AR v2)
     Копирование... OK

Все треки извлечены точно

Ошибок не произошло

Конец отчёта

==== Контрольная сумма отчёта ECE90102279CCBFCDE6BE3988074DB2FA11F032D4860CFCC6B1AD7D04D8D4C25 ====
Содержание индексной карты (.CUE)
REM GENRE "Contemporary Jazz"
REM DATE 1998
REM DISCID DF0F0710
REM COMMENT "ExactAudioCopy v1.3"
CATALOG 0000000000000
PERFORMER "Kip Hanrahan"
TITLE "A Thousands Nights And A Night (Shadow Night 1)"
REM COMPOSER ""
FILE "01. Kip Hanrahan -  Shahrazade on the Opening of the First Shadow Night.wav" WAVE
  TRACK 01 AUDIO
    TITLE "Shahrazade on the Opening of the First Shadow Night"
    PERFORMER "Kip Hanrahan"
    REM COMPOSER ""
    INDEX 01 00:00:00
FILE "02. Kip Hanrahan -  Blue Shalimah's Tale, Opening.wav" WAVE
  TRACK 02 AUDIO
    TITLE "Blue Shalimah's Tale, Opening"
    PERFORMER "Kip Hanrahan"
    REM COMPOSER ""
    INDEX 01 00:00:00
FILE "03. Kip Hanrahan -  Blue Shalimah's Tale, Continuing.wav" WAVE
  TRACK 03 AUDIO
    TITLE "Blue Shalimah's Tale, Continuing"
    PERFORMER "Kip Hanrahan"
    REM COMPOSER ""
    INDEX 01 00:00:00
FILE "04. Kip Hanrahan -  Shahrazade's First Shadow Night.wav" WAVE
  TRACK 04 AUDIO
    TITLE "Shahrazade's First Shadow Night"
    PERFORMER "Kip Hanrahan"
    REM COMPOSER ""
    INDEX 01 00:00:00
FILE "05. Kip Hanrahan -  The Blonde Woman Escapes.wav" WAVE
  TRACK 05 AUDIO
    TITLE "The Blonde Woman Escapes"
    PERFORMER "Kip Hanrahan"
    REM COMPOSER ""
    INDEX 01 00:00:00
FILE "06. Kip Hanrahan -  The Hasheater At The Gates of the Summer City.wav" WAVE
  TRACK 06 AUDIO
    TITLE "The Hasheater At The Gates of the Summer City"
    PERFORMER "Kip Hanrahan"
    REM COMPOSER ""
    INDEX 01 00:00:00
FILE "07. The Hasheater In Judgement -  and the Revival of the Thousand Pound Elephant.wav" WAVE
  TRACK 07 AUDIO
    TITLE "and the Revival of the Thousand Pound Elephant"
    PERFORMER "The Hasheater In Judgement"
    REM COMPOSER ""
    INDEX 01 00:00:00
FILE "08. Kip Hanrahan -  A Woman's Trick.wav" WAVE
  TRACK 08 AUDIO
    TITLE "A Woman's Trick"
    PERFORMER "Kip Hanrahan"
    REM COMPOSER ""
    INDEX 01 00:00:00
FILE "09. Kip Hanrahan -  Ghanim ibn Ayyub's Tale and Kut al-Kulub.wav" WAVE
  TRACK 09 AUDIO
    TITLE "Ghanim ibn Ayyub's Tale and Kut al-Kulub"
    PERFORMER "Kip Hanrahan"
    REM COMPOSER ""
    INDEX 01 00:00:00
FILE "10. Kip Hanrahan -  The Jewish Doctor's Tale Continues.wav" WAVE
  TRACK 10 AUDIO
    TITLE "The Jewish Doctor's Tale Continues"
    PERFORMER "Kip Hanrahan"
    REM COMPOSER ""
    INDEX 01 00:00:00
  TRACK 11 AUDIO
    TITLE "Shahrazade Adrift"
    PERFORMER "Kip Hanrahan"
    REM COMPOSER ""
    INDEX 00 03:06:29
FILE "11. Kip Hanrahan -  Shahrazade Adrift.wav" WAVE
    INDEX 01 00:00:00
FILE "12. Kip Hanrahan -  The Sleeper Awakened.wav" WAVE
  TRACK 12 AUDIO
    TITLE "The Sleeper Awakened"
    PERFORMER "Kip Hanrahan"
    REM COMPOSER ""
    INDEX 01 00:00:00
FILE "13. Kip Hanrahan -  Zummarud's Tale Continues with the Theves.wav" WAVE
  TRACK 13 AUDIO
    TITLE "Zummarud's Tale Continues with the Theves"
    PERFORMER "Kip Hanrahan"
    REM COMPOSER ""
    INDEX 01 00:00:00
FILE "14. Kip Hanrahan -  The Brown Eyed Woman Escapes.wav" WAVE
  TRACK 14 AUDIO
    TITLE "The Brown Eyed Woman Escapes"
    PERFORMER "Kip Hanrahan"
    REM COMPOSER ""
    INDEX 01 00:00:00
FILE "15. Kip Hanrahan -  The Res Headed Woman Remains with the Merchant.wav" WAVE
  TRACK 15 AUDIO
    TITLE "The Res Headed Woman Remains with the Merchant"
    PERFORMER "Kip Hanrahan"
    REM COMPOSER ""
    INDEX 01 00:00:00
FILE "16. Kip Hanrahan -  Shahrazade and the Closing of the First Shadow Night.wav" WAVE
  TRACK 16 AUDIO
    TITLE "Shahrazade and the Closing of the First Shadow Night"
    PERFORMER "Kip Hanrahan"
    REM COMPOSER ""
    INDEX 01 00:00:00
19:02
515
Нет комментариев. Ваш будет первым!