Поиск

1998 Enrico Rava - Certi Angoli Segreti {Label Bleu LBLC 6594}

1998 Enrico Rava - Certi Angoli Segreti {Label Bleu LBLC 6594}
Стили:
Дата издания диска:
1998
Издатель (лейбл):
Номер по каталогу:
LBLC 6594
Носитель:
CD
Битрейт аудио:
lossless
Аудиокодек:
FLAC (*.flac)
Тип рипа:
image+.cue
Время звучания:
52:25
Наличие сканов:
  • нет
Релизёр (источник):
obelix
Лог создания рипа
Exact Audio Copy V0.99 prebeta 3 from 28. July 2007

EAC extraction logfile from 16. October 2007, 11:27

Enrico Rava / Certi Angoli Segreti (Udine, maggio 1998)

Used drive : HL-DT-STCD-RW GCE-8525B Adapter: 1 ID: 0

Read mode : Secure
Utilize accurate stream : Yes
Defeat audio cache : Yes
Make use of C2 pointers : No

Combined read/write offset correction : 6
Overread into Lead-In and Lead-Out : No
Fill up missing offset samples with silence : Yes
Delete leading and trailing silent blocks : No
Null samples used in CRC calculations : No
Used interface : Installed external ASPI interface

Used output format : Internal WAV Routines
Sample format : 44.100 Hz; 16 Bit; Stereo

TOC of the extracted CD

Track | Start | Length | Start sector | End sector
---------------------------------------------------------
1 | 0:00.00 | 7:47.50 | 0 | 35074
2 | 7:47.50 | 6:47.02 | 35075 | 65601
3 | 14:34.52 | 5:15.28 | 65602 | 89254
4 | 19:50.05 | 5:26.60 | 89255 | 113764
5 | 25:16.65 | 4:05.62 | 113765 | 132201
6 | 29:22.52 | 5:24.23 | 132202 | 156524
7 | 34:47.00 | 6:44.05 | 156525 | 186829
8 | 41:31.05 | 3:44.35 | 186830 | 203664
9 | 45:15.40 | 3:50.15 | 203665 | 220929
10 | 49:05.55 | 3:19.52 | 220930 | 235906

Range status and errors

Selected range

Filename C:\Rips\Enrico Rava - Certi Angoli Segreti.wav

Peak level 99.9 %
Range quality 100.0 %
Copy CRC 667BA5A1
Copy OK

No errors occurred

End of status report
Приватный:
Нет (DHT включён)
Размер:
301.08 Мб (315,710,164 байт) » файлов: 3
Участники:
0 раздают, 0 качают (0 участников всего)
Внешние участники:
2 раздают, 1 качают (3 участников всего) [ Обновить ]
21:48
51
RSS
Нет комментариев. Ваш будет первым!