Поиск

1997 Oscar Peterson - The Oscar Peterson Trio: Live from Chicago {Verve 539 063-2}

1997 Oscar Peterson - The Oscar Peterson Trio: Live from Chicago {Verve 539 063-2}
Издатель (лейбл):
Треклист:

Страна-производитель диска: Polygram Records
Год издания диска: 1997
Издатель (лейбл): Verve
Номер по каталогу: 539 063-2
Страна: USA
Аудио кодек: FLAC (*.flac)
Тип рипа: image+.cue
Битрейт аудио: lossless
Продолжительность: 70:30
Треклист:
1. I`ve Never Been In Love Before 5:35
2. In The Wee Small Hours Of The Morning 8:07
3. Chicago 8:55
4. The Night We Called It a Day 4:47
5. Sometimes I`m Happy 11:41
6. Whisper Not 5:46
7. Billy Boy 1:46
8. The Lonesome One 5:32
9. The Gravy Waltz 4:54
10. Woody`n`You 3:48
11. Soon 9:20
12. Daahound 5:52

 
Лог создания рипа
Exact Audio Copy V1.0 beta 1 from 15. November 2010
EAC extraction logfile from 12. February 2011, 2:19
Oscar Peterson / The Trio Live From Chicago
Used drive  : SlimtypeDVD A  DS8A1P   Adapter: 0  ID: 0
Read mode               : Secure
Utilize accurate stream : Yes
Defeat audio cache      : Yes
Make use of C2 pointers : No
Read offset correction                      : 594
Overread into Lead-In and Lead-Out          : No
Fill up missing offset samples with silence : Yes
Delete leading and trailing silent blocks   : No
Null samples used in CRC calculations       : Yes
Used interface                              : Native Win32 interface for Win NT & 2000
Used output format              : User Defined Encoder
Selected bitrate                : 128 kBit/s
Quality                         : High
Add ID3 tag                     : No
Command line compressor         : C:\Program Files\Exact Audio Copy\Flac\flac.exe
Additional command line options : -6 -V -T "ARTIST=%a" -T "TITLE=%t" -T "ALBUM=%g" -T "DATE=%y" -T "TRACKNUMBER=%n" -T "GENRE=%m" -T "COMMENT=%e" %s -o %d
TOC of the extracted CD
     Track |   Start  |  Length  | Start sector | End sector
    ---------------------------------------------------------
        1  |  0:00.00 |  5:38.45 |         0    |    25394
        2  |  5:38.45 |  8:07.15 |     25395    |    61934
        3  | 13:45.60 |  8:57.17 |     61935    |   102226
        4  | 22:43.02 |  4:46.58 |    102227    |   123734
        5  | 27:29.60 | 11:40.72 |    123735    |   176306
        6  | 39:10.57 |  5:46.25 |    176307    |   202281
        7  | 44:57.07 |  1:56.35 |    202282    |   211016
        8  | 46:53.42 |  5:31.63 |    211017    |   235904
        9  | 52:25.30 |  4:54.35 |    235905    |   257989
       10  | 57:19.65 |  3:49.22 |    257990    |   275186
       11  | 61:09.12 |  9:21.25 |    275187    |   317286
       12  | 70:30.37 |  5:52.25 |    317287    |   343711
Range status and errors
Selected range
     Filename C:\Documents and Settings\олег\Мои документы\Oscar Peterson\Oscar Peterson - The Trio Live From Chicago.wav
     Peak level 98.8 %
     Extraction speed 0.1 X
     Range quality 99.9 %
     Copy CRC DCDFB3FB
     Copy OK
No errors occurred
AccurateRip summary
Track  1  accurately ripped (confidence 2)  [BC5B5E58]
Track  2  accurately ripped (confidence 2)  [C1FFBA11]
Track  3  accurately ripped (confidence 2)  [B5D2EF37]
Track  4  accurately ripped (confidence 2)  [54FE243B]
Track  5  accurately ripped (confidence 2)  [49E79BA8]
Track  6  accurately ripped (confidence 2)  [62C82918]
Track  7  accurately ripped (confidence 2)  [9FDED77B]
Track  8  accurately ripped (confidence 2)  [E6FC45E5]
Track  9  accurately ripped (confidence 2)  [27B14D02]
Track 10  accurately ripped (confidence 2)  [A19CF112]
Track 11  accurately ripped (confidence 2)  [7E30A922]
Track 12  accurately ripped (confidence 2)  [CB025076]
All tracks accurately ripped
End of status report
 
Содержание индексной карты (.CUE)

REM GENRE Jazz
REM DATE 1997
REM DISCID A311E60C
REM COMMENT "ExactAudioCopy v1.0b1"
PERFORMER "Oscar Peterson"
TITLE "The Trio Live From Chicago"
FILE "Oscar Peterson - The Trio Live From Chicago.flac" WAVE
TRACK 01 AUDIO
TITLE "I`ve Never Been In Love Before"
PERFORMER "Oscar Peterson"
INDEX 01 00:00:00
TRACK 02 AUDIO
TITLE "In The Wee Small Hours Of The Morning"
PERFORMER "Oscar Peterson"
INDEX 00 05:34:50
INDEX 01 05:38:45
TRACK 03 AUDIO
TITLE "Chicago"
PERFORMER "Oscar Peterson"
INDEX 00 13:45:45
INDEX 01 13:45:60
TRACK 04 AUDIO
TITLE "The Night We Called It A Day"
PERFORMER "Oscar Peterson"
INDEX 00 22:40:57
INDEX 01 22:43:02
TRACK 05 AUDIO
TITLE "Sometimes I Happy"
PERFORMER "Oscar Peterson"
INDEX 00 27:29:55
INDEX 01 27:29:60
TRACK 06 AUDIO
TITLE "Whisper Not"
PERFORMER "Oscar Peterson"
INDEX 00 39:10:47
INDEX 01 39:10:57
TRACK 07 AUDIO
TITLE "Billy Boy"
PERFORMER "Oscar Peterson"
INDEX 01 44:57:07
TRACK 08 AUDIO
TITLE "The Lonesome One"
PERFORMER "Oscar Peterson"
INDEX 00 46:43:45
INDEX 01 46:53:42
TRACK 09 AUDIO
TITLE "The Gravy Waltz"
PERFORMER "Oscar Peterson"
INDEX 00 52:25:25
INDEX 01 52:25:30
TRACK 10 AUDIO
TITLE "Woody`n`You"
PERFORMER "Oscar Peterson"
INDEX 00 57:19:62
INDEX 01 57:19:65
TRACK 11 AUDIO
TITLE "Soon"
PERFORMER "Oscar Peterson"
INDEX 00 61:08:27
INDEX 01 61:09:12
TRACK 12 AUDIO
TITLE "Daahound"
PERFORMER "Oscar Peterson"
INDEX 00 70:28:55
INDEX 01 70:30:37

Приватный:
Нет (DHT включён)
Размер:
454.93 Мб (477,030,495 байт) » файлов: 3
Участники:
0 раздают, 0 качают (0 участников всего)
Внешние участники:
2 раздают, 1 качают (3 участников всего) [ Обновить ]
Никого нет на раздаче - пишите личное сообщение M0p94ok
No seeders - write personal message to M0p94ok
01:09
122
Нет комментариев. Ваш будет первым!