Поиск

1997 Kenny G - Greatest Hits

1997 Kenny G - Greatest Hits
Треклист:
Год выпуска: 1997
Формат: APE (image + .cue)
Битрейт аудио: lossless
Продолжительность: 1:13:43
Трэклист:
1. Songbird (4:01)
2. Silhouette (4:32)
3. Forever In Love (4:59)
4. Everytime I Close My Eyes (4:59)
5. Sentimental (4:19)
6. The Moment (4:43)
7. How Could An Angel Break My Heart (4:21)
8. Loving You (3:19)
9. You Send Me (4:02)
10. Going Home (4:16)
11. Havana (4:01)
12. By The Time This Night Is Over (4:20)
13. Baby G (3:35)
14. Don't Make Me Wait For Love (4:06)
15. Theme From 'Dying Young' (4:02)
16. All The Way/One For My Baby (And One More For The Road) (6:08)
17. Innocence (4:00)
Доп. информация:
 
Отчет EAC
Exact Audio Copy V0.99 prebeta 1 from 25. May 2007
Отчёт EAC об извлечении, выполненном 18. июля 2007, 13:45
Kenny G / Greatest Hits
Дисковод: TOSHIBA DVD-ROM SD-R1312 Adapter: 1 ID: 0
Режим чтения : Достоверность
Использование точного потока : Да
Отключение кэша аудио : Да
Использование указателей C2 : Нет
Коррекция смещения при чтении : 116
Способность читать области Lead-in и Lead-out : Нет
Заполнение пропущенных сэмплов тишиной : Да
Удаление блоков с тишиной в начале и конце : Нет
Интерфейс : Установленный внешний ASPI-интерфейс
Выходной формат : Внутренние WAV-операции
Формат сэмплов : 44.100 Гц; 16 бит; стерео
TOC извлечённого CD
Трек | Старт | Длительность | Начальный сектор | Конечный сектор
---------------------------------------------------------------------
1 | 0:00.00 | 4:01.22 | 0 | 18096
2 | 4:01.22 | 4:32.20 | 18097 | 38516
3 | 8:33.42 | 4:59.53 | 38517 | 60994
4 | 13:33.20 | 4:59.32 | 60995 | 83451
5 | 18:32.52 | 4:19.05 | 83452 | 102881
6 | 22:51.57 | 4:43.55 | 102882 | 124161
7 | 27:35.37 | 4:21.73 | 124162 | 143809
8 | 31:57.35 | 3:19.67 | 143810 | 158801
9 | 35:17.27 | 4:02.43 | 158802 | 176994
10 | 39:19.70 | 4:16.27 | 176995 | 196221
11 | 43:36.22 | 4:01.07 | 196222 | 214303
12 | 47:37.29 | 4:20.60 | 214304 | 233863
13 | 51:58.14 | 3:35.23 | 233864 | 250011
14 | 55:33.37 | 4:06.37 | 250012 | 268498
15 | 59:39.74 | 4:02.50 | 268499 | 286698
16 | 63:42.49 | 6:08.25 | 286699 | 314323
17 | 69:50.74 | 4:00.05 | 314324 | 332328
Характеристики диапазона извлечения и сообщения об ошибках
Выбранный диапазон
Имя файла C:\Documents and Settings\sous\My Documents\UPLOAD\Greatest Hits\Kenny G - Greatest Hits.wav
Пиковый уровень 100.0 %
Качество диапазона 99.9 %
CRC копии BCF62404
Копирование... OK
Ошибок не произошло
Конец отчёта
Скачивание доступно после регистрации!!
Приватный:
Нет (DHT включён)
Размер:
401.90 Мб (421,423,425 байт) » файлов: 4
Участники:
0 раздают, 0 качают (0 участников всего)
Внешние участники:
3 раздают, 1 качают (4 участников всего) [ Обновить ]
10:37
12
Нет комментариев. Ваш будет первым!