Поиск

1997 Dick Haymes - My Heart Tells Me {Memoir CDMOIR 521} [CD]

1997 Dick Haymes - My Heart Tells Me {Memoir CDMOIR 521} [CD]
Треклист:

01. I Wish I Knew (3:13)
02. Easy to Love (3:08)
03. The More I See You (3:06)
04. The Night Is Young and You're So Beautiful (3:15)
05. You Make Me Feel So Young (2:48)
06. Come Rain or Shine (feat. Helen Forrest) (2:54)
07. In Love in Vain (feat. Helen Forrest) (3:08)
08. Love Letters (2:49)
09. Laura (3:10)
10. Do You Love Me (3:04)
11. They Can't Convince Me (2:54)
12. How Deep Is the Ocean (3:09)
13. Aren't You Kinda Glad We Did (feat. Judy Garland) (3:06)
14. For You, for Me, for Everyone (feat. Judy Garland) (3:16)
15. That's for Me (2:54)
16. Isn't It Kinda Fun (2:41)
17. It Might as Well Be Spring (3:12)
18. It's a Grand Night for Singing (2:36)
19. Oh What It Seemed to Be (feat. Helen Forrest) (3:01)
20. I'm Always Chasing Rainbows (feat. Helen Forrest) (3:03)
21. Some Hearts Sing (2:47)
22. You Are Too Beautiful (2:57)
23. Another Night Like This (3:12)
24. Till the End of Time (3:08)
25. My Heart Tells Me/A Lovely Way to Spend an Evening (4:30)

Жанр: Vocal Jazz, Vocal Pop
Носитель: CD
Страна-производитель диска (релиза): Германия
Год издания: 1997
Издатель (лейбл): Memoir
Номер по каталогу: CDMOIR 521
Страна исполнителя (группы): США
Аудиокодек: FLAC (*.flac)
Тип рипа: tracks+.cue
Битрейт аудио: lossless
Продолжительность: 01:17:01
Источник: What.CD
Наличие сканов в содержимом раздачи: нет

Лог создания рипа
Exact Audio Copy V1.1 from 23. June 2015

EAC extraction logfile from 24. November 2015, 18:07

Dick Haymes / My Heart Tells Me

Used drive  : ASUS    DRW-24F1ST   a   Adapter: 1  ID: 0

Read mode               : Secure
Utilize accurate stream : Yes
Defeat audio cache      : Yes
Make use of C2 pointers : No

Read offset correction                      : 6
Overread into Lead-In and Lead-Out          : No
Fill up missing offset samples with silence : Yes
Delete leading and trailing silent blocks   : No
Null samples used in CRC calculations       : Yes
Used interface                              : Native Win32 interface for Win NT & 2000
Gap handling                                : Appended to previous track

Used output format              : User Defined Encoder
Selected bitrate                : 1024 kBit/s
Quality                         : High
Add ID3 tag                     : No
Command line compressor         : D:\Apps\Exact Audio Copy\Flac\flac.exe
Additional command line options : -8 -V -T "ARTIST=%artist%" -T "TITLE=%title%" -T "ALBUM=%albumtitle%" -T "DATE=%year%" -T "TRACKNUMBER=%tracknr%" -T "GENRE=%genre%" -T "PERFORMER=%albuminterpret%" -T "COMPOSER=%composer%" %haslyrics%--tag-from-file=LYRICS="%lyricsfile%"%haslyrics% -T "ALBUMARTIST=%albumartist%" -T "DISCNUMBER=%cdnumber%" -T "TOTALDISCS=%totalcds%" -T "TOTALTRACKS=%numtracks%" -T "COMMENT=%comment%" %source% -o %dest%

TOC of the extracted CD

     Track |   Start  |  Length  | Start sector | End sector
    ---------------------------------------------------------
        1  |  0:00.00 |  3:12.50 |         0    |    14449
        2  |  3:12.50 |  3:07.70 |     14450    |    28544
        3  |  6:20.45 |  3:05.55 |     28545    |    42474
        4  |  9:26.25 |  3:15.22 |     42475    |    57121
        5  | 12:41.47 |  2:47.55 |     57122    |    69701
        6  | 15:29.27 |  2:54.25 |     69702    |    82776
        7  | 18:23.52 |  3:08.18 |     82777    |    96894
        8  | 21:31.70 |  2:48.42 |     96895    |   109536
        9  | 24:20.37 |  3:09.50 |    109537    |   123761
       10  | 27:30.12 |  3:03.63 |    123762    |   137549
       11  | 30:34.00 |  2:53.70 |    137550    |   150594
       12  | 33:27.70 |  3:08.50 |    150595    |   164744
       13  | 36:36.45 |  3:06.12 |    164745    |   178706
       14  | 39:42.57 |  3:15.58 |    178707    |   193389
       15  | 42:58.40 |  2:54.12 |    193390    |   206451
       16  | 45:52.52 |  2:40.70 |    206452    |   218521
       17  | 48:33.47 |  3:12.03 |    218522    |   232924
       18  | 51:45.50 |  2:35.65 |    232925    |   244614
       19  | 54:21.40 |  3:00.57 |    244615    |   258171
       20  | 57:22.22 |  3:03.33 |    258172    |   271929
       21  | 60:25.55 |  2:47.35 |    271930    |   284489
       22  | 63:13.15 |  2:57.37 |    284490    |   297801
       23  | 66:10.52 |  3:11.53 |    297802    |   312179
       24  | 69:22.30 |  3:07.50 |    312180    |   326254
       25  | 72:30.05 |  4:30.12 |    326255    |   346516

Track  1

     Filename E:\EAC Rips\Rip\Dick Haymes - My Heart Tells Me (1997) [FLAC]\01 - Dick Haymes - I Wish I Knew.wav

     Pre-gap length  0:00:02.00

     Peak level 78.6 %
     Extraction speed 4.6 X
     Track quality 100.0 %
     Test CRC 7627A406
     Copy CRC 7627A406
     Cannot be verified as accurate (confidence 1)  [BCA8DC23], AccurateRip returned [9B07C0E3]  (AR v2)
     Copy OK

Track  2

     Filename E:\EAC Rips\Rip\Dick Haymes - My Heart Tells Me (1997) [FLAC]\02 - Dick Haymes - Easy to Love.wav

     Pre-gap length  0:00:03.24

     Peak level 87.1 %
     Extraction speed 4.8 X
     Track quality 100.0 %
     Test CRC 80A68EA3
     Copy CRC 80A68EA3
     Accurately ripped (confidence 1)  [C3136698]  (AR v2)
     Copy OK

Track  3

     Filename E:\EAC Rips\Rip\Dick Haymes - My Heart Tells Me (1997) [FLAC]\03 - Dick Haymes - The More I See You.wav

     Pre-gap length  0:00:03.24

     Peak level 76.1 %
     Extraction speed 5.2 X
     Track quality 100.0 %
     Test CRC 485BC26A
     Copy CRC 485BC26A
     Accurately ripped (confidence 1)  [5458F5C9]  (AR v2)
     Copy OK

Track  4

     Filename E:\EAC Rips\Rip\Dick Haymes - My Heart Tells Me (1997) [FLAC]\04 - Dick Haymes - The Night is Young and You're so Beautiful.wav

     Pre-gap length  0:00:03.20

     Peak level 67.3 %
     Extraction speed 5.5 X
     Track quality 100.0 %
     Test CRC E42CAB35
     Copy CRC E42CAB35
     Accurately ripped (confidence 1)  [979B4B18]  (AR v2)
     Copy OK

Track  5

     Filename E:\EAC Rips\Rip\Dick Haymes - My Heart Tells Me (1997) [FLAC]\05 - Dick Haymes - You Make Me Feel so Young.wav

     Pre-gap length  0:00:03.22

     Peak level 84.0 %
     Extraction speed 5.0 X
     Track quality 100.0 %
     Test CRC E365ED25
     Copy CRC E365ED25
     Accurately ripped (confidence 1)  [F79A2A86]  (AR v2)
     Copy OK

Track  6

     Filename E:\EAC Rips\Rip\Dick Haymes - My Heart Tells Me (1997) [FLAC]\06 - Dick Haymes & Helen Forrest - Come Rain or Shine.wav

     Pre-gap length  0:00:03.22

     Peak level 88.4 %
     Extraction speed 5.5 X
     Track quality 100.0 %
     Test CRC DE97C61F
     Copy CRC DE97C61F
     Accurately ripped (confidence 1)  [5D19BFEF]  (AR v2)
     Copy OK

Track  7

     Filename E:\EAC Rips\Rip\Dick Haymes - My Heart Tells Me (1997) [FLAC]\07 - Dick Haymes & Helen Forrest - In Love in Vain.wav

     Pre-gap length  0:00:03.20

     Peak level 96.0 %
     Extraction speed 4.7 X
     Track quality 99.9 %
     Test CRC B0FE6F27
     Copy CRC B0FE6F27
     Accurately ripped (confidence 1)  [2062C483]  (AR v2)
     Copy OK

Track  8

     Filename E:\EAC Rips\Rip\Dick Haymes - My Heart Tells Me (1997) [FLAC]\08 - Dick Haymes - Love Letters.wav

     Pre-gap length  0:00:03.24

     Peak level 90.3 %
     Extraction speed 6.3 X
     Track quality 100.0 %
     Test CRC E01CF6E4
     Copy CRC E01CF6E4
     Accurately ripped (confidence 1)  [D030EF44]  (AR v2)
     Copy OK

Track  9

     Filename E:\EAC Rips\Rip\Dick Haymes - My Heart Tells Me (1997) [FLAC]\09 - Dick Haymes - Laura.wav

     Pre-gap length  0:00:03.20

     Peak level 86.1 %
     Extraction speed 6.7 X
     Track quality 100.0 %
     Test CRC FFE1CC01
     Copy CRC FFE1CC01
     Accurately ripped (confidence 1)  [B915CFCC]  (AR v2)
     Copy OK

Track 10

     Filename E:\EAC Rips\Rip\Dick Haymes - My Heart Tells Me (1997) [FLAC]\10 - Dick Haymes - Do You Love Me.wav

     Pre-gap length  0:00:03.20

     Peak level 78.8 %
     Extraction speed 6.8 X
     Track quality 100.0 %
     Test CRC 539D6772
     Copy CRC 539D6772
     Accurately ripped (confidence 1)  [353290BC]  (AR v2)
     Copy OK

Track 11

     Filename E:\EAC Rips\Rip\Dick Haymes - My Heart Tells Me (1997) [FLAC]\11 - Dick Haymes - They Can't Convince Me.wav

     Pre-gap length  0:00:03.24

     Peak level 70.1 %
     Extraction speed 5.1 X
     Track quality 99.9 %
     Test CRC 67974E52
     Copy CRC 67974E52
     Accurately ripped (confidence 1)  [B7894D5B]  (AR v2)
     Copy OK

Track 12

     Filename E:\EAC Rips\Rip\Dick Haymes - My Heart Tells Me (1997) [FLAC]\12 - Dick Haymes - How Deep is the Ocean.wav

     Pre-gap length  0:00:03.24

     Peak level 92.4 %
     Extraction speed 7.2 X
     Track quality 100.0 %
     Test CRC 09A1626A
     Copy CRC 09A1626A
     Accurately ripped (confidence 1)  [4897C866]  (AR v2)
     Copy OK

Track 13

     Filename E:\EAC Rips\Rip\Dick Haymes - My Heart Tells Me (1997) [FLAC]\13 - Dick Haymes & Judy Garland - Aren't You Kinda Glad We Did.wav

     Pre-gap length  0:00:03.24

     Peak level 78.8 %
     Extraction speed 7.3 X
     Track quality 100.0 %
     Test CRC FADB2B7E
     Copy CRC FADB2B7E
     Accurately ripped (confidence 1)  [F90256CC]  (AR v2)
     Copy OK

Track 14

     Filename E:\EAC Rips\Rip\Dick Haymes - My Heart Tells Me (1997) [FLAC]\14 - Dick Haymes & Judy Garland - For You, for Me, for Everyone.wav

     Pre-gap length  0:00:03.20

     Peak level 87.0 %
     Extraction speed 7.5 X
     Track quality 100.0 %
     Test CRC 7D1F37E9
     Copy CRC 7D1F37E9
     Accurately ripped (confidence 1)  [9C09EE11]  (AR v2)
     Copy OK

Track 15

     Filename E:\EAC Rips\Rip\Dick Haymes - My Heart Tells Me (1997) [FLAC]\15 - Dick Haymes - That's for Me.wav

     Pre-gap length  0:00:03.24

     Peak level 80.4 %
     Extraction speed 6.7 X
     Track quality 100.0 %
     Test CRC 3B59DCCF
     Copy CRC 3B59DCCF
     Accurately ripped (confidence 1)  [C2359714]  (AR v2)
     Copy OK

Track 16

     Filename E:\EAC Rips\Rip\Dick Haymes - My Heart Tells Me (1997) [FLAC]\16 - Dick Haymes - Isn't it Kinda Fun.wav

     Pre-gap length  0:00:03.22

     Peak level 75.0 %
     Extraction speed 7.6 X
     Track quality 100.0 %
     Test CRC D87A58F6
     Copy CRC D87A58F6
     Accurately ripped (confidence 1)  [A98BA14B]  (AR v2)
     Copy OK

Track 17

     Filename E:\EAC Rips\Rip\Dick Haymes - My Heart Tells Me (1997) [FLAC]\17 - Dick Haymes - It Might As Well Be Spring.wav

     Pre-gap length  0:00:03.22

     Peak level 67.8 %
     Extraction speed 8.0 X
     Track quality 100.0 %
     Test CRC 41859421
     Copy CRC 41859421
     Accurately ripped (confidence 1)  [689AE423]  (AR v2)
     Copy OK

Track 18

     Filename E:\EAC Rips\Rip\Dick Haymes - My Heart Tells Me (1997) [FLAC]\18 - Dick Haymes - It's a Grand Night for Singing.wav

     Pre-gap length  0:00:03.24

     Peak level 83.4 %
     Extraction speed 7.9 X
     Track quality 100.0 %
     Test CRC 77CAEF40
     Copy CRC 77CAEF40
     Accurately ripped (confidence 1)  [CB59D7E3]  (AR v2)
     Copy OK

Track 19

     Filename E:\EAC Rips\Rip\Dick Haymes - My Heart Tells Me (1997) [FLAC]\19 - Dick Haymes & Helen Forrest - Oh What it Seemed to Be.wav

     Pre-gap length  0:00:03.24

     Peak level 87.5 %
     Extraction speed 8.3 X
     Track quality 100.0 %
     Test CRC 06813160
     Copy CRC 06813160
     Accurately ripped (confidence 1)  [A93E7341]  (AR v2)
     Copy OK

Track 20

     Filename E:\EAC Rips\Rip\Dick Haymes - My Heart Tells Me (1997) [FLAC]\20 - Dick Haymes - I'm Always Chasing Rainbows.wav

     Pre-gap length  0:00:03.22

     Peak level 61.6 %
     Extraction speed 8.4 X
     Track quality 100.0 %
     Test CRC 1F14B52A
     Copy CRC 1F14B52A
     Accurately ripped (confidence 1)  [4DB0360F]  (AR v2)
     Copy OK

Track 21

     Filename E:\EAC Rips\Rip\Dick Haymes - My Heart Tells Me (1997) [FLAC]\21 - Dick Haymes - Some Hearts Sing.wav

     Pre-gap length  0:00:03.24

     Peak level 100.0 %
     Extraction speed 8.4 X
     Track quality 100.0 %
     Test CRC DC29E90D
     Copy CRC DC29E90D
     Accurately ripped (confidence 1)  [B08C3CED]  (AR v2)
     Copy OK

Track 22

     Filename E:\EAC Rips\Rip\Dick Haymes - My Heart Tells Me (1997) [FLAC]\22 - Dick Haymes - You Are Too Beautiful.wav

     Pre-gap length  0:00:03.24

     Peak level 66.1 %
     Extraction speed 8.7 X
     Track quality 100.0 %
     Test CRC 33851068
     Copy CRC 33851068
     Accurately ripped (confidence 1)  [4D7AA2D9]  (AR v2)
     Copy OK

Track 23

     Filename E:\EAC Rips\Rip\Dick Haymes - My Heart Tells Me (1997) [FLAC]\23 - Dick Haymes - Another Night Like This.wav

     Pre-gap length  0:00:03.29

     Peak level 95.4 %
     Extraction speed 9.0 X
     Track quality 100.0 %
     Test CRC D91D90DE
     Copy CRC D91D90DE
     Accurately ripped (confidence 1)  [3E058BDF]  (AR v2)
     Copy OK

Track 24

     Filename E:\EAC Rips\Rip\Dick Haymes - My Heart Tells Me (1997) [FLAC]\24 - Dick Haymes - Till the End of Time.wav

     Pre-gap length  0:00:03.37

     Peak level 79.9 %
     Extraction speed 9.1 X
     Track quality 100.0 %
     Test CRC 14BA636B
     Copy CRC 14BA636B
     Accurately ripped (confidence 1)  [3E94C9CF]  (AR v2)
     Copy OK

Track 25

     Filename E:\EAC Rips\Rip\Dick Haymes - My Heart Tells Me (1997) [FLAC]\25 - Dick Haymes - My Heart Tells Me , A Lovely Way to Spend an Evening.wav

     Pre-gap length  0:00:03.24

     Peak level 74.1 %
     Extraction speed 9.7 X
     Track quality 100.0 %
     Test CRC C4BBCE95
     Copy CRC C4BBCE95
     Accurately ripped (confidence 1)  [9461CA47]  (AR v2)
     Copy OK

24 track(s) accurately ripped
 1 track(s) could not be verified as accurate

Some tracks could not be verified as accurate

No errors occurred

End of status report

---- CUETools DB Plugin V2.1.6

[CTDB TOCID: Izf0RGR6NrddhRtZBtOYY1AGXWA-] disk not present in database
Submit result: Izf0RGR6NrddhRtZBtOYY1AGXWA- has been uploaded

==== Log checksum CC1CE6746E0170EF37623C11FB5162884E2171E6E9F09751702F81783F617534 ====
Содержание индексной карты (.CUE)
REM GENRE Jazz
REM DATE 1997
REM DISCID 77120C19
REM COMMENT "ExactAudioCopy v1.1"
PERFORMER "Dick Haymes"
TITLE "My Heart Tells Me"
FILE "01 - I Wish I Knew.wav" WAVE
  TRACK 01 AUDIO
    TITLE "I Wish I Knew"
    PERFORMER "Dick Haymes"
    ISRC GBBPG9752101
    INDEX 01 00:00:00
  TRACK 02 AUDIO
    TITLE "Easy to Love"
    PERFORMER "Dick Haymes"
    ISRC GBBPG9752102
    INDEX 00 03:09:32
FILE "02 - Easy to Love.wav" WAVE
    INDEX 01 00:00:00
  TRACK 03 AUDIO
    TITLE "The More I See You"
    PERFORMER "Dick Haymes"
    ISRC GBBPG9752103
    INDEX 00 03:04:52
FILE "03 - The More I See You.wav" WAVE
    INDEX 01 00:00:00
  TRACK 04 AUDIO
    TITLE "The Night Is Young and You're So Beautiful"
    PERFORMER "Dick Haymes"
    ISRC GBBPG9752104
    INDEX 00 03:02:40
FILE "04 - The Night Is Young and You're So Beautiful.wav" WAVE
    INDEX 01 00:00:00
  TRACK 05 AUDIO
    TITLE "You Make Me Feel So Young"
    PERFORMER "Dick Haymes"
    ISRC GBBPG9752105
    INDEX 00 03:12:05
FILE "05 - You Make Me Feel So Young.wav" WAVE
    INDEX 01 00:00:00
  TRACK 06 AUDIO
    TITLE "Come Rain or Shine (feat. Helen Forrest)"
    PERFORMER "Dick Haymes"
    ISRC GBBPG9752106
    INDEX 00 02:44:38
FILE "06 - Come Rain or Shine (feat. Helen Forrest).wav" WAVE
    INDEX 01 00:00:00
  TRACK 07 AUDIO
    TITLE "In Love in Vain (feat. Helen Forrest)"
    PERFORMER "Dick Haymes"
    ISRC GBBPG9752107
    INDEX 00 02:51:10
FILE "07 - In Love in Vain (feat. Helen Forrest).wav" WAVE
    INDEX 01 00:00:00
  TRACK 08 AUDIO
    TITLE "Love Letters"
    PERFORMER "Dick Haymes"
    ISRC GBBPG9752108
    INDEX 00 03:05:00
FILE "08 - Love Letters.wav" WAVE
    INDEX 01 00:00:00
  TRACK 09 AUDIO
    TITLE "Laura"
    PERFORMER "Dick Haymes"
    ISRC GBBPG9752109
    INDEX 00 02:45:27
FILE "09 - Laura.wav" WAVE
    INDEX 01 00:00:00
  TRACK 10 AUDIO
    TITLE "Do You Love Me"
    PERFORMER "Dick Haymes"
    ISRC GBBPG9752110
    INDEX 00 03:06:35
FILE "10 - Do You Love Me.wav" WAVE
    INDEX 01 00:00:00
  TRACK 11 AUDIO
    TITLE "They Can't Convince Me"
    PERFORMER "Dick Haymes"
    ISRC GBBPG9752111
    INDEX 00 03:00:45
FILE "11 - They Can't Convince Me.wav" WAVE
    INDEX 01 00:00:00
  TRACK 12 AUDIO
    TITLE "How Deep Is the Ocean"
    PERFORMER "Dick Haymes"
    ISRC GBBPG9752112
    INDEX 00 02:50:52
FILE "12 - How Deep Is the Ocean.wav" WAVE
    INDEX 01 00:00:00
  TRACK 13 AUDIO
    TITLE "Aren't You Kinda Glad We Did (feat. Judy Garland)"
    PERFORMER "Dick Haymes"
    ISRC GBBPG9752113
    INDEX 00 03:05:32
FILE "13 - Aren't You Kinda Glad We Did (feat. Judy Garland).wav" WAVE
    INDEX 01 00:00:00
  TRACK 14 AUDIO
    TITLE "For You, for Me, for Everyone (feat. Judy Garland)"
    PERFORMER "Dick Haymes"
    ISRC GBBPG9752114
    INDEX 00 03:02:72
FILE "14 - For You, for Me, for Everyone (feat. Judy Garland).wav" WAVE
    INDEX 01 00:00:00
  TRACK 15 AUDIO
    TITLE "That's for Me"
    PERFORMER "Dick Haymes"
    ISRC GBBPG9752115
    INDEX 00 03:12:40
FILE "15 - That's for Me.wav" WAVE
    INDEX 01 00:00:00
  TRACK 16 AUDIO
    TITLE "Isn't It Kinda Fun"
    PERFORMER "Dick Haymes"
    ISRC GBBPG9752116
    INDEX 00 02:50:70
FILE "16 - Isn't It Kinda Fun.wav" WAVE
    INDEX 01 00:00:00
  TRACK 17 AUDIO
    TITLE "It Might as Well Be Spring"
    PERFORMER "Dick Haymes"
    ISRC GBBPG9752117
    INDEX 00 02:37:53
FILE "17 - It Might as Well Be Spring.wav" WAVE
    INDEX 01 00:00:00
  TRACK 18 AUDIO
    TITLE "It's a Grand Night for Singing"
    PERFORMER "Dick Haymes"
    ISRC GBBPG9752118
    INDEX 00 03:08:60
FILE "18 - It's a Grand Night for Singing.wav" WAVE
    INDEX 01 00:00:00
  TRACK 19 AUDIO
    TITLE "Oh What It Seemed to Be (feat. Helen Forrest)"
    PERFORMER "Dick Haymes"
    ISRC GBBPG9752119
    INDEX 00 02:32:47
FILE "19 - Oh What It Seemed to Be (feat. Helen Forrest).wav" WAVE
    INDEX 01 00:00:00
  TRACK 20 AUDIO
    TITLE "I'm Always Chasing Rainbows (feat. Helen Forrest)"
    PERFORMER "Dick Haymes"
    ISRC GBBPG9752120
    INDEX 00 02:57:40
FILE "20 - I'm Always Chasing Rainbows (feat. Helen Forrest).wav" WAVE
    INDEX 01 00:00:00
  TRACK 21 AUDIO
    TITLE "Some Hearts Sing"
    PERFORMER "Dick Haymes"
    ISRC GBBPG9752121
    INDEX 00 03:00:15
FILE "21 - Some Hearts Sing.wav" WAVE
    INDEX 01 00:00:00
  TRACK 22 AUDIO
    TITLE "You Are Too Beautiful"
    PERFORMER "Dick Haymes"
    ISRC GBBPG9752122
    INDEX 00 02:44:17
FILE "22 - You Are Too Beautiful.wav" WAVE
    INDEX 01 00:00:00
  TRACK 23 AUDIO
    TITLE "Another Night Like This"
    PERFORMER "Dick Haymes"
    ISRC GBBPG9752123
    INDEX 00 02:54:15
FILE "23 - Another Night Like This.wav" WAVE
    INDEX 01 00:00:00
  TRACK 24 AUDIO
    TITLE "Till the End of Time"
    PERFORMER "Dick Haymes"
    ISRC GBBPG9752124
    INDEX 00 03:08:25
FILE "24 - Till the End of Time.wav" WAVE
    INDEX 01 00:00:00
  TRACK 25 AUDIO
    TITLE "My Heart Tells Me/A Lovely Way to Spend an Evening"
    PERFORMER "Dick Haymes"
    ISRC GBBPG9752125
    INDEX 00 03:04:32
FILE "25 - My Heart Tells Me,A Lovely Way to Spend an Evening.wav" WAVE
    INDEX 01 00:00:00
Лог проверки качества
[CUETools log; Date: 31.01.2019 23:42:53; Version: 2.1.6]
[CTDB TOCID: Izf0RGR6NrddhRtZBtOYY1AGXWA-] found.
Track | CTDB Status
  1   | (2/2) Accurately ripped
  2   | (2/2) Accurately ripped
  3   | (2/2) Accurately ripped
  4   | (2/2) Accurately ripped
  5   | (2/2) Accurately ripped
  6   | (2/2) Accurately ripped
  7   | (2/2) Accurately ripped
  8   | (2/2) Accurately ripped
  9   | (2/2) Accurately ripped
 10   | (2/2) Accurately ripped
 11   | (2/2) Accurately ripped
 12   | (2/2) Accurately ripped
 13   | (2/2) Accurately ripped
 14   | (2/2) Accurately ripped
 15   | (2/2) Accurately ripped
 16   | (2/2) Accurately ripped
 17   | (2/2) Accurately ripped
 18   | (2/2) Accurately ripped
 19   | (2/2) Accurately ripped
 20   | (2/2) Accurately ripped
 21   | (2/2) Accurately ripped
 22   | (2/2) Accurately ripped
 23   | (2/2) Accurately ripped
 24   | (2/2) Accurately ripped
 25   | (2/2) Accurately ripped
[AccurateRip ID: 0043e740-04c3a16b-77120c19] found.
Track   [  CRC   |   V2   ] Status
 01     [7097f094|bca8dc23] (0+0/1) No match
 02     [a817ba4c|c3136698] (0+1/1) Accurately ripped
 03     [306996c6|5458f5c9] (0+1/1) Accurately ripped
 04     [bc2b16da|979b4b18] (0+1/1) Accurately ripped
 05     [b3d8023f|f79a2a86] (0+1/1) Accurately ripped
 06     [c0e2f899|5d19bfef] (0+1/1) Accurately ripped
 07     [ac2976fa|2062c483] (0+1/1) Accurately ripped
 08     [3eec4a41|d030ef44] (0+1/1) Accurately ripped
 09     [41baaffb|b915cfcc] (0+1/1) Accurately ripped
 10     [c9bddc53|353290bc] (0+1/1) Accurately ripped
 11     [48fec26b|b7894d5b] (0+1/1) Accurately ripped
 12     [4196d925|4897c866] (0+1/1) Accurately ripped
 13     [1c870127|f90256cc] (0+1/1) Accurately ripped
 14     [b45f03e6|9c09ee11] (0+1/1) Accurately ripped
 15     [10881b19|c2359714] (0+1/1) Accurately ripped
 16     [99be2037|a98ba14b] (0+1/1) Accurately ripped
 17     [d04be96a|689ae423] (0+1/1) Accurately ripped
 18     [eec91d41|cb59d7e3] (0+1/1) Accurately ripped
 19     [eef1b31f|a93e7341] (0+1/1) Accurately ripped
 20     [c0762c25|4db0360f] (0+1/1) Accurately ripped
 21     [be92df14|b08c3ced] (0+1/1) Accurately ripped
 22     [ab356823|4d7aa2d9] (0+1/1) Accurately ripped
 23     [8213d605|3e058bdf] (0+1/1) Accurately ripped
 24     [2f1014ba|3e94c9cf] (0+1/1) Accurately ripped
 25     [21ca8115|9461ca47] (0+1/1) Accurately ripped

Track Peak [ CRC32  ] [W/O NULL] [  LOG   ]
 --  100,0 [4C75FE5C] [B029C2C4]
 01   78,6 [7627A406] [94F8E69F]   CRC32
 02   87,1 [80A68EA3] [4D8F18FA]   CRC32
 03   76,1 [485BC26A] [0EA3B5AE]   CRC32
 04   67,3 [E42CAB35] [06D4DA32]   CRC32
 05   84,0 [E365ED25] [71F7815A]   CRC32
 06   88,4 [DE97C61F] [E857875F]   CRC32
 07   96,0 [B0FE6F27] [BF21235C]   CRC32
 08   90,3 [E01CF6E4] [A617B8C6]   CRC32
 09   86,1 [FFE1CC01] [1E80ABCC]   CRC32
 10   78,8 [539D6772] [808249EE]   CRC32
 11   70,1 [67974E52] [E448A45E]   CRC32
 12   92,4 [09A1626A] [429BDDD4]   CRC32
 13   78,8 [FADB2B7E] [71E22469]   CRC32
 14   87,0 [7D1F37E9] [D938D6AA]   CRC32
 15   80,4 [3B59DCCF] [E214B4B9]   CRC32
 16   75,0 [D87A58F6] [4F135DF5]   CRC32
 17   67,8 [41859421] [ADD8820F]   CRC32
 18   83,4 [77CAEF40] [42E49F96]   CRC32
 19   87,5 [06813160] [9F129937]   CRC32
 20   61,6 [1F14B52A] [9821BC08]   CRC32
 21  100,0 [DC29E90D] [FD78720D]   CRC32
 22   66,1 [33851068] [13A3DD4C]   CRC32
 23   95,4 [D91D90DE] [17093E87]   CRC32
 24   79,9 [14BA636B] [2EBD0B8C]   CRC32
 25   74,1 [C4BBCE95] [50CE3103]   CRC32
По всем вопросам пишите личное сообщение пользователю M0p94ok.
17:37
641
Нет комментариев. Ваш будет первым!