Поиск

1997 Dave Brubeck - Greatest Hits {Companion 6187382}

1997 Dave Brubeck - Greatest Hits {Companion 6187382}
Стили:
Состав:

*4: 

*7

  • drums: Joe Morello
  • bass: Norm Bates (double-bass player)
  • alto saxophone: Paul Desmond
  • piano: Dave Brubeck
  • producer: George Avakian and Nedra Olds‐Neal
 
Лог создания рипа

Exact Audio Copy V0.99 prebeta 3 from 28. July 2007
Отчёт EAC об извлечении, выполненном 16. ноября 2007, 23:44
Dave Brubeck / Greatest Hits
Дисковод: PHILIPS DVD-RAM SDVD8821 Adapter: 0 ID: 1
Режим чтения: Достоверность
Использование точного потока: Да
Отключение кэша аудио: Да
Использование указателей C2: Нет
Коррекция смещения при чтении: 6
Способность читать области Lead-in и Lead-out: Нет
Заполнение пропущенных сэмплов тишиной: Да
Удаление блоков с тишиной в начале и конце: Нет
При вычислениях CRC использовались нулевые сэмплы: Нет
Интерфейс: Установленный внешний ASPI-интерфейс
Выходной формат: Внутренние WAV-операции
Формат сэмплов: 44.100 Гц; 16 бит; стерео
TOC извлечённого CD
Трек | Старт | Длительность | Начальный сектор | Конечный сектор
---------------------------------------------------------------------
1 | 0:00.00 | 5:24.37 | 0 | 24336
2 | 5:24.37 | 2:01.55 | 24337 | 33466
3 | 7:26.17 | 8:15.28 | 33467 | 70619
4 | 15:41.45 | 3:03.72 | 70620 | 84416
5 | 18:45.42 | 2:58.00 | 84417 | 97766
6 | 21:43.42 | 4:46.25 | 97767 | 119241
7 | 26:29.67 | 4:48.38 | 119242 | 140879
8 | 31:18.30 | 5:12.20 | 140880 | 164299
9 | 36:30.50 | 4:58.07 | 164300 | 186656
10 | 41:28.57 | 9:24.65 | 186657 | 229021
11 | 50:53.47 | 7:32.53 | 229022 | 262974
12 | 58:26.25 | 3:55.50 | 262975 | 280649
Характеристики диапазона извлечения и сообщения об ошибках
Выбранный диапазон
Имя файла C:\Documents and Settings\Алексей\Мои документы\Dave Brubeck — Greatest Hits.wav
Пиковый уровень 100.0 %
Качество диапазона 99.9 %
CRC копии EC03800B
Копирование… OK
Ошибок не произошло
Конец отчёта

 

Страна: Denmark
Год выпуска: 1997
Формат: APE (image + .cue)
Битрейт аудио: lossless
Время звучания: 01:02:22

Треклист:
01. Take Five 5:24
02. Unsquare Dance 2:02
03. Someday My Prince Will Come 8:15
04. Trolley Song 3:04
05. I'm In A Dancing Mood 2:59
06. Kathy's Waltz 4:50
07. When You Wish Upon A Star 4:50
08. It's A Raggy Waltz 5:15
09. One Song 4:55
10. Alice In Wonderland 9:24
11. Give A Little Whistle 7:32
12. Heigh-Ho 3:55

Приватный:
Нет (DHT включён)
Размер:
246.11 Мб (258,063,436 байт) » файлов: 5
Участники:
0 раздают, 0 качают (0 участников всего)
Внешние участники:
--- [ Обновить ]
00:20
21
RSS
Нет комментариев. Ваш будет первым!