Поиск

1996 Aziza Mustafa Zadeh - Seventh Truth {Columbia 484238 2} [CD]

1996 Aziza Mustafa Zadeh - Seventh Truth {Columbia 484238 2} [CD]
Место записи:
Bauer Studio, Ludwigsburg, Germany
Дата издания диска:
29 апреля 1996
Издатель (лейбл):
Номер по каталогу:
COL 484238 2
Носитель:
CD
Тип рипа:
image+.cue
Аудиокодек:
FLAC (*.flac)
Битрейт аудио:
lossless
Время звучания:
00:56:52
Наличие сканов:
да

Треклист:

01. Ay Dilber  5:25
02. Lachin  3:43
03. Interlude I  2:06
04. Fly With Me  7:07
05. F#  4:18
06. Desperation  6:21
07. Daha... (Again)  4:53
08. I Am Sad  4:55
09. Interlude II  0:27
10. Wild Beauty  4:34
11. Seventh Truth  4:40
12. Sea Monster  8:12

Состав:
  • Co-producer – Eliza Mustafa Zadeh*
  • Congas – Aziza Mustafa Zadeh (tracks: 1, 4, 10 to 12)
  • Drums – Ramesh Shotam* (tracks: 4)
  • Engineer [Sound], Mastered By, Mixed By – Thomas Schmidt (2)
  • Executive-Producer – Ludwig Jantzer
  • Percussion [Indian] – Ramesh Shotam* (tracks: 1, 4, 11)
  • Producer, Composed By, Arranged By, Piano, Vocals, Mixed By, Mastered By, Lyrics By [English] – Aziza Mustafa Zadeh
Лог создания рипа
Exact Audio Copy V1.0 beta 1 from 15. November 2010

EAC extraction logfile from 16. December 2010, 23:41

Aziza Mustafa Zadeh / Seventh Truth (484238 2)

Used drive  : TEAC    DV-W516GDM   Adapter: 0  ID: 1

Read mode               : Secure
Utilize accurate stream : Yes
Defeat audio cache      : Yes
Make use of C2 pointers : No

Read offset correction                      : 6
Overread into Lead-In and Lead-Out          : No
Fill up missing offset samples with silence : Yes
Delete leading and trailing silent blocks   : No
Null samples used in CRC calculations       : Yes
Used interface                              : Native Win32 interface for Win NT & 2000

Used output format              : User Defined Encoder
Selected bitrate                : 896 kBit/s
Quality                         : High
Add ID3 tag                     : No
Command line compressor         : C:\Program Files\Exact Audio Copy 1.0\Flac\flac.exe
Additional command line options : -8 -V %s


TOC of the extracted CD

     Track |   Start  |  Length  | Start sector | End sector 
    ---------------------------------------------------------
        1  |  0:00.00 |  5:27.27 |         0    |    24551   
        2  |  5:27.27 |  3:45.38 |     24552    |    41464   
        3  |  9:12.65 |  2:06.47 |     41465    |    50961   
        4  | 11:19.37 |  7:10.25 |     50962    |    83236   
        5  | 18:29.62 |  4:18.15 |     83237    |   102601   
        6  | 22:48.02 |  6:23.20 |    102602    |   131346   
        7  | 29:11.22 |  4:55.00 |    131347    |   153471   
        8  | 34:06.22 |  4:55.55 |    153472    |   175651   
        9  | 39:02.02 |  0:27.25 |    175652    |   177701   
       10  | 39:29.27 |  4:34.20 |    177702    |   198271   
       11  | 44:03.47 |  4:40.48 |    198272    |   219319   
       12  | 48:44.20 |  8:12.27 |    219320    |   256246   


Range status and errors

Selected range

     Filename C:\Olaf der Weisse\Aziza Mustafa Zadeh . 1996 . Seventh Truth (484238 2)\Aziza Mustafa Zadeh - Seventh Truth (484238 2).wav

     Peak level 98.5 %
     Extraction speed 0.2 X
     Range quality 99.9 %
     Test CRC F950E590
     Copy CRC F950E590
     Copy OK

No errors occurred

 
AccurateRip summary
 
Track  1  accurately ripped (confidence 41)  [1E1C3688]
Track  2  accurately ripped (confidence 41)  [C353292C]
Track  3  accurately ripped (confidence 41)  [2789D6DD]
Track  4  accurately ripped (confidence 41)  [E51C692F]
Track  5  accurately ripped (confidence 41)  [79A2FC96]
Track  6  accurately ripped (confidence 41)  [FFCF6558]
Track  7  accurately ripped (confidence 41)  [B649FDBE]
Track  8  accurately ripped (confidence 41)  [918367D5]
Track  9  accurately ripped (confidence 41)  [4656F001]
Track 10  accurately ripped (confidence 41)  [2717E8AB]
Track 11  accurately ripped (confidence 41)  [BA1BDA36]
Track 12  accurately ripped (confidence 41)  [52771F66]
 
All tracks accurately ripped

End of status report
21:02
435
Нет комментариев. Ваш будет первым!