Поиск

1996 Allen Farnham - Live at Maybeck Recital Hall, Vol. 41 {Concord Jazz} [CD]

1996 Allen Farnham - Live at Maybeck Recital Hall, Vol. 41 {Concord Jazz} [CD]
Дата записи диска:
12 июня 1994
Место записи:
Maybeck Recital Hall, Berkeley, CA, USA
Издатель (лейбл):
Номер по каталогу:
CCD-4686
Носитель:
CD
Тип рипа:
tracks+.cue
Аудиокодек:
FLAC (*.flac)
Битрейт аудио:
lossless
Время звучания:
01:00:42
Наличие сканов:
web

Треклист:

01. In Your Own Sweet Way (Brubeck) - 6:38
02. Waltz for Debbie (Evans) - 7:44
03. The Carpal Tunnel Blues (Farnham) - 4:48
04. Maybeck Sketch No.1 (Farnham) - 4:43
05. I Get a Kick Out of You (Porter) - 7:13
06. Never Let Me Go (Evans-Livingston) - 6:01
07. Witch Hunt (Shorter) - 6:11
08. Maybeck Sketch No.2 (Farnham) - 5:36
09. I Hear a Rhapsody (Gasparre-Fragos-Baker) - 5:14
10. Twilight World (McPartland) - 5:19
11. Lover (Rodgers-Hart) - 3:57

Состав:
  • Robert Berenson    Assistant Engineer
  • Allen Farnham    Composer, Piano
  • George Horn    Mastering
  • Carl Jefferson    Producer
  • David Luke    Engineer
  • Nick Phillips    Assistant Producer
  • Bud Spangler    Engineer
  • Gary Walker    Liner Notes
Лог создания рипа
X Lossless Decoder version 20141129 (148.1)

XLD extraction logfile from 2015-02-08 15:51:53 -0500

Allen Farnham / At Maybeck

Used drive : MATSHITA DVD-R   UJ-8A8 (revision HB14)
Media type : Pressed CD

Ripper mode             : XLD Secure Ripper
Disable audio cache     : OK for the drive with a cache less than 1375KiB
Make use of C2 pointers : NO
Read offset correction  : 102
Max retry count         : 100
Gap status              : Analyzed, Appended (except HTOA)

TOC of the extracted CD
     Track |   Start  |  Length  | Start sector | End sector
    ---------------------------------------------------------
        1  | 00:00:00 | 06:38:20 |         0    |    29869
        2  | 06:38:20 | 07:43:72 |     29870    |    64666
        3  | 14:22:17 | 04:48:30 |     64667    |    86296
        4  | 19:10:47 | 04:42:53 |     86297    |   107499
        5  | 23:53:25 | 07:12:50 |    107500    |   139949
        6  | 31:06:00 | 06:01:20 |    139950    |   167044
        7  | 37:07:20 | 06:11:10 |    167045    |   194879
        8  | 43:18:30 | 05:35:67 |    194880    |   220071
        9  | 48:54:22 | 05:13:45 |    220072    |   243591
       10  | 54:07:67 | 05:19:25 |    243592    |   267541
       11  | 59:27:17 | 03:57:05 |    267542    |   285321

AccurateRip Summary (DiscID: 001b9191-00ec5387-990edc0b)
    Track 01 : OK (v1, confidence 3/3)
    Track 02 : OK (v1, confidence 3/3)
    Track 03 : OK (v1, confidence 3/3)
    Track 04 : OK (v1, confidence 3/3)
    Track 05 : OK (v1, confidence 3/3)
    Track 06 : OK (v1, confidence 3/3)
    Track 07 : OK (v1, confidence 3/3)
    Track 08 : OK (v1, confidence 3/3)
    Track 09 : OK (v1, confidence 3/3)
    Track 10 : OK (v1, confidence 3/3)
    Track 11 : OK (v1, confidence 3/3)
        ->All tracks accurately ripped.

All Tracks
    Album gain               : 0.61 dB
    Peak                     : 0.865387
    Statistics
        Read error                           : 0
        Jitter error (maybe fixed)           : 0
        Retry sector count                   : 0
        Damaged sector count                 : 0

Track 01
    Filename : /Users/XLD_rips/Allen Farnham - At Maybeck (1996) [FLAC]/01-01 In Your Own Sweet Way.flac
    Pre-gap length : 00:02:00

    Track gain               : 1.45 dB
    Peak                     : 0.790894
    CRC32 hash (test run)    : D44A0020
    CRC32 hash               : D44A0020
    CRC32 hash (skip zero)   : F613CB5B
    AccurateRip v1 signature : E3FB0CA4
    AccurateRip v2 signature : 79706ADC
        ->Accurately ripped (v1, confidence 3/3)
    Statistics
        Read error                           : 0
        Jitter error (maybe fixed)           : 0
        Retry sector count                   : 0
        Damaged sector count                 : 0

Track 02
    Filename : /Users/XLD_rips/Allen Farnham - At Maybeck (1996) [FLAC]/01-02 Waltz For Debbie.flac

    Track gain               : 2.68 dB
    Peak                     : 0.837646
    CRC32 hash (test run)    : 6BBD3D08
    CRC32 hash               : 6BBD3D08
    CRC32 hash (skip zero)   : 43257110
    AccurateRip v1 signature : 21748F59
    AccurateRip v2 signature : 6817749F
        ->Accurately ripped (v1, confidence 3/3)
    Statistics
        Read error                           : 0
        Jitter error (maybe fixed)           : 0
        Retry sector count                   : 0
        Damaged sector count                 : 0

Track 03
    Filename : /Users/XLD_rips/Allen Farnham - At Maybeck (1996) [FLAC]/01-03 The Carpal Tunnel Blues.flac

    Track gain               : -1.05 dB
    Peak                     : 0.842194
    CRC32 hash (test run)    : 1C6ADDE4
    CRC32 hash               : 1C6ADDE4
    CRC32 hash (skip zero)   : D8A14B82
    AccurateRip v1 signature : 4836A670
    AccurateRip v2 signature : 3E9653D2
        ->Accurately ripped (v1, confidence 3/3)
    Statistics
        Read error                           : 0
        Jitter error (maybe fixed)           : 0
        Retry sector count                   : 0
        Damaged sector count                 : 0

Track 04
    Filename : /Users/XLD_rips/Allen Farnham - At Maybeck (1996) [FLAC]/01-04 Maybeck Sketch No. 1.flac

    Track gain               : 2.85 dB
    Peak                     : 0.808105
    CRC32 hash (test run)    : F5727BF3
    CRC32 hash               : F5727BF3
    CRC32 hash (skip zero)   : 87A2867D
    AccurateRip v1 signature : 45148C9B
    AccurateRip v2 signature : DDC895F3
        ->Accurately ripped (v1, confidence 3/3)
    Statistics
        Read error                           : 0
        Jitter error (maybe fixed)           : 0
        Retry sector count                   : 0
        Damaged sector count                 : 0

Track 05
    Filename : /Users/XLD_rips/Allen Farnham - At Maybeck (1996) [FLAC]/01-05 I Get A Kick Out Of You.flac

    Track gain               : -1.10 dB
    Peak                     : 0.865387
    CRC32 hash (test run)    : 19DE041C
    CRC32 hash               : 19DE041C
    CRC32 hash (skip zero)   : 5A1347EA
    AccurateRip v1 signature : 4C1CE0E4
    AccurateRip v2 signature : BE65FA9C
        ->Accurately ripped (v1, confidence 3/3)
    Statistics
        Read error                           : 0
        Jitter error (maybe fixed)           : 0
        Retry sector count                   : 0
        Damaged sector count                 : 0

Track 06
    Filename : /Users/XLD_rips/Allen Farnham - At Maybeck (1996) [FLAC]/01-06 Never Let Me Go.flac

    Track gain               : 3.79 dB
    Peak                     : 0.544983
    CRC32 hash (test run)    : 0EA2B57B
    CRC32 hash               : 0EA2B57B
    CRC32 hash (skip zero)   : 6E993CA3
    AccurateRip v1 signature : 039C79A4
    AccurateRip v2 signature : EDCD631D
        ->Accurately ripped (v1, confidence 3/3)
    Statistics
        Read error                           : 0
        Jitter error (maybe fixed)           : 0
        Retry sector count                   : 0
        Damaged sector count                 : 0

Track 07
    Filename : /Users/XLD_rips/Allen Farnham - At Maybeck (1996) [FLAC]/01-07 Witch Hunt.flac

    Track gain               : -0.55 dB
    Peak                     : 0.859131
    CRC32 hash (test run)    : B1C8A017
    CRC32 hash               : B1C8A017
    CRC32 hash (skip zero)   : 58AB9355
    AccurateRip v1 signature : 1D55D733
    AccurateRip v2 signature : A84A50AE
        ->Accurately ripped (v1, confidence 3/3)
    Statistics
        Read error                           : 0
        Jitter error (maybe fixed)           : 0
        Retry sector count                   : 0
        Damaged sector count                 : 0

Track 08
    Filename : /Users/XLD_rips/Allen Farnham - At Maybeck (1996) [FLAC]/01-08 Maybeck Sketch No. 2.flac

    Track gain               : 0.80 dB
    Peak                     : 0.851624
    CRC32 hash (test run)    : BEA2E49B
    CRC32 hash               : BEA2E49B
    CRC32 hash (skip zero)   : 1FBE38B2
    AccurateRip v1 signature : 17B31109
    AccurateRip v2 signature : 4812D669
        ->Accurately ripped (v1, confidence 3/3)
    Statistics
        Read error                           : 0
        Jitter error (maybe fixed)           : 0
        Retry sector count                   : 0
        Damaged sector count                 : 0

Track 09
    Filename : /Users/XLD_rips/Allen Farnham - At Maybeck (1996) [FLAC]/01-09 I Hear A Rhapsody.flac

    Track gain               : 2.34 dB
    Peak                     : 0.751617
    CRC32 hash (test run)    : 4ACA7CE8
    CRC32 hash               : 4ACA7CE8
    CRC32 hash (skip zero)   : DFD66FC7
    AccurateRip v1 signature : 76B05760
    AccurateRip v2 signature : 176BBAD7
        ->Accurately ripped (v1, confidence 3/3)
    Statistics
        Read error                           : 0
        Jitter error (maybe fixed)           : 0
        Retry sector count                   : 0
        Damaged sector count                 : 0

Track 10
    Filename : /Users/XLD_rips/Allen Farnham - At Maybeck (1996) [FLAC]/01-10 Twilight World.flac

    Track gain               : 0.87 dB
    Peak                     : 0.840485
    CRC32 hash (test run)    : 641644D6
    CRC32 hash               : 641644D6
    CRC32 hash (skip zero)   : 6BF2E004
    AccurateRip v1 signature : E169F035
    AccurateRip v2 signature : E6DC05D0
        ->Accurately ripped (v1, confidence 3/3)
    Statistics
        Read error                           : 0
        Jitter error (maybe fixed)           : 0
        Retry sector count                   : 0
        Damaged sector count                 : 0

Track 11
    Filename : /Users/XLD_rips/Allen Farnham - At Maybeck (1996) [FLAC]/01-11 Lover.flac

    Track gain               : 0.85 dB
    Peak                     : 0.696106
    CRC32 hash (test run)    : 13BCD0B1
    CRC32 hash               : 13BCD0B1
    CRC32 hash (skip zero)   : E8F91B4F
    AccurateRip v1 signature : C02769A8
    AccurateRip v2 signature : 3AB2E489
        ->Accurately ripped (v1, confidence 3/3)
    Statistics
        Read error                           : 0
        Jitter error (maybe fixed)           : 0
        Retry sector count                   : 0
        Damaged sector count                 : 0

No errors occurred

End of status report

-----BEGIN XLD SIGNATURE-----
uZKEyrOoG_Z.T6nAO5p4xw6p2SVhJkiUuwH36xrymdaEvX.KaC7K9KUHLNqc7tCmkCfHiVQEJ_WuvQCXzm1hfmUdecVhKKaCbqAC6Bq
-----END XLD SIGNATURE-----
По всем вопросам пишите личное сообщение пользователю M0p94ok.
10:34
272
Нет комментариев. Ваш будет первым!