Поиск

1995 Tom Jobim - Série Grandes Nomes {PolyGram 528 071-2} [4CD]

1995 Tom Jobim - Série Grandes Nomes {PolyGram 528 071-2} [4CD]
Стили:
Страна-производитель диска (релиза):
Brazil
Дата издания диска:
1995
Издатель (лейбл):
Номер по каталогу:
528 071-2
Носитель:
CD
Аудиокодек:
FLAC (*.flac)
Тип рипа:
image+.cue
Битрейт аудио:
lossless
Время звучания:
03:16:02
Наличие сканов:
да
Релизёр (источник):
eduardokbb
Треклист:
 
Disc 01
01. Ai Quem Me Dera
02. Por Causa de Você
03. Chega de Saudade
04. É Preciso Dizer Adeus
05. Tempo do Mar
06. Desafinado
07. A Felicidade
08. Fotografia
09. Modinha
10. Samba de Uma Nota Só
11. Brigas Nunca Mais
12. Dindi
13. Meditação
14. O Que Tinha de Ser
 
Лог создания рипа
Exact Audio Copy V1.3 from 2. September 2016
EAC extraction logfile from 1. January 2019, 3:30
Tom Jobim / Tom Jobim: Série Grandes Nomes
Used drive  : HL-DT-STDVDRAM GH24NS90   Adapter: 1  ID: 0
Read mode               : Secure
Utilize accurate stream : Yes
Defeat audio cache      : Yes
Make use of C2 pointers : No
Read offset correction                      : 6
Overread into Lead-In and Lead-Out          : No
Fill up missing offset samples with silence : Yes
Delete leading and trailing silent blocks   : No
Null samples used in CRC calculations       : Yes
Used interface                              : Native Win32 interface for Win NT & 2000
Used output format              : User Defined Encoder
Selected bitrate                : 768 kBit/s
Quality                         : High
Add ID3 tag                     : No
Command line compressor         : C:\Program Files (x86)\Exact Audio Copy\FLAC\FLAC.EXE
Additional command line options : -6 -V -T "ARTIST=%artist%" -T "TITLE=%title%" -T "ALBUM=%albumtitle%" -T "DATE=%year%" -T "TRACKNUMBER=%tracknr%" -T "GENRE=%genre%" -T "COMMENT=%comment%" -T "BAND=%albuminterpret%" -T "ALBUMARTIST=%albuminterpret%" -T "COMPOSER=%composer%" %haslyrics%--tag-from-file=LYRICS="%lyricsfile%"%haslyrics% -T "DISCNUMBER=%cdnumber%" -T "TOTALDISCS=%totalcds%" -T "TOTALTRACKS=%numtracks%" %hascover%--picture="%coverfile%"%hascover% %source% -o %dest%
TOC of the extracted CD
     Track |   Start  |  Length  | Start sector | End sector
    ---------------------------------------------------------
        1  |  0:00.00 |  2:11.67 |         0    |     9891
        2  |  2:11.67 |  3:04.08 |      9892    |    23699
        3  |  5:16.00 |  3:43.64 |     23700    |    40488
        4  |  8:59.64 |  4:19.51 |     40489    |    59964
        5  | 13:19.40 |  5:10.17 |     59965    |    83231
        6  | 18:29.57 |  4:09.30 |     83232    |   101936
        7  | 22:39.12 |  2:05.65 |    101937    |   111376
        8  | 24:45.02 |  2:45.55 |    111377    |   123806
        9  | 27:30.57 |  2:17.18 |    123807    |   134099
       10  | 29:48.00 |  2:15.35 |    134100    |   144259
       11  | 32:03.35 |  1:38.67 |    144260    |   151676
       12  | 33:42.27 |  2:36.07 |    151677    |   163383
       13  | 36:18.34 |  3:15.43 |    163384    |   178051
       14  | 39:34.02 |  1:42.13 |    178052    |   185714
Range status and errors
Selected range
     Filename D:\Downloads\Torrents\(1994) Tom Jobim; Série Grandes Nomes\Disc 1\Tom Jobim - Tom Jobim- Série Grandes Nomes.wav
     Peak level 100.0 %
     Extraction speed 1.6 X
     Range quality 100.0 %
     Test CRC 21693E1E
     Copy CRC 21693E1E
     Copy OK
No errors occurred
AccurateRip summary
Track  1  not present in database
Track  2  not present in database
Track  3  not present in database
Track  4  not present in database
Track  5  not present in database
Track  6  not present in database
Track  7  not present in database
Track  8  not present in database
Track  9  not present in database
Track 10  not present in database
Track 11  not present in database
Track 12  not present in database
Track 13  not present in database
Track 14  not present in database
None of the tracks are present in the AccurateRip database
End of status report
---- CUETools DB Plugin V2.1.6
[CTDB TOCID: 0MFR3j106gdV2X91CvrBUsg6tgU-] found
Submit result: already submitted
Track | CTDB Status
  1   | (3/3) Accurately ripped
  2   | (3/3) Accurately ripped
  3   | (3/3) Accurately ripped
  4   | (3/3) Accurately ripped
  5   | (3/3) Accurately ripped
  6   | (3/3) Accurately ripped
  7   | (3/3) Accurately ripped
  8   | (3/3) Accurately ripped
  9   | (3/3) Accurately ripped
 10   | (3/3) Accurately ripped
 11   | (3/3) Accurately ripped
 12   | (3/3) Accurately ripped
 13   | (3/3) Accurately ripped
 14   | (3/3) Accurately ripped
==== Log checksum B634766BB99F5C1272584C251D3D40F55707E98756D9D6D3D1D015DB23F605A6 ====
 
Содержание индексной карты (.CUE)
REM GENRE Bossa Nova
REM DATE 1995
REM DISCID A009AC0E
REM COMMENT ExactAudioCopy v1.3
CATALOG 528 072-2
PERFORMER "Tom Jobim"
TITLE "Tom Jobim: Série Grandes Nomes"
REM REPLAYGAIN_ALBUM_GAIN -1.70 dB
REM REPLAYGAIN_ALBUM_PEAK 0.999969
FILE "Tom Jobim - Tom Jobim- Série Grandes Nomes.flac" WAVE
  TRACK 01 AUDIO
    TITLE "Ai Quem Me Dera"
    PERFORMER "Tom Jobim, Edu Lobo"
    REM REPLAYGAIN_TRACK_GAIN -1.67 dB
    REM REPLAYGAIN_TRACK_PEAK 0.806030
    INDEX 01 00:00:00
  TRACK 02 AUDIO
    TITLE "Por Causa de Você"
    PERFORMER "Tom Jobim, Nana Caymmi"
    REM REPLAYGAIN_TRACK_GAIN +0.52 dB
    REM REPLAYGAIN_TRACK_PEAK 0.999939
    INDEX 01 02:11:67
  TRACK 03 AUDIO
    TITLE "Chega de Saudade"
    PERFORMER "Tom Jobim"
    REM REPLAYGAIN_TRACK_GAIN -1.27 dB
    REM REPLAYGAIN_TRACK_PEAK 0.999969
    INDEX 01 05:16:00
  TRACK 04 AUDIO
    TITLE "É Preciso Dizer Adeus"
    PERFORMER "Tom Jobim, Edu Lobo"
    REM REPLAYGAIN_TRACK_GAIN -1.43 dB
    REM REPLAYGAIN_TRACK_PEAK 0.720123
    INDEX 01 08:59:64
  TRACK 05 AUDIO
    TITLE "Tempo do Mar"
    PERFORMER "Tom Jobim"
    REM REPLAYGAIN_TRACK_GAIN -1.78 dB
    REM REPLAYGAIN_TRACK_PEAK 0.749878
    INDEX 01 13:19:40
  TRACK 06 AUDIO
    TITLE "Desafinado"
    PERFORMER "Tom Jobim, João Gilberto, Stan Getz"
    REM REPLAYGAIN_TRACK_GAIN -2.90 dB
    REM REPLAYGAIN_TRACK_PEAK 0.820648
    INDEX 00 18:28:47
    INDEX 01 18:29:57
  TRACK 07 AUDIO
    TITLE "A Felicidade"
    PERFORMER "Tom Jobim, Nelson Riddle E Sua Orquestra"
    REM REPLAYGAIN_TRACK_GAIN -1.11 dB
    REM REPLAYGAIN_TRACK_PEAK 0.933167
    INDEX 01 22:39:12
  TRACK 08 AUDIO
    TITLE "Fotografia"
    PERFORMER "Tom Jobim, Elis Regina"
    REM REPLAYGAIN_TRACK_GAIN -2.51 dB
    REM REPLAYGAIN_TRACK_PEAK 0.870026
    INDEX 01 24:45:02
  TRACK 09 AUDIO
    TITLE "Modinha"
    PERFORMER "Tom Jobim, Elis Regina"
    REM REPLAYGAIN_TRACK_GAIN -1.70 dB
    REM REPLAYGAIN_TRACK_PEAK 0.860626
    INDEX 01 27:30:57
  TRACK 10 AUDIO
    TITLE "Samba de Uma Nota Só"
    PERFORMER "Tom Jobim"
    REM REPLAYGAIN_TRACK_GAIN -0.43 dB
    REM REPLAYGAIN_TRACK_PEAK 0.683868
    INDEX 00 29:47:02
    INDEX 01 29:48:00
  TRACK 11 AUDIO
    TITLE "Brigas Nunca Mais"
    PERFORMER "Tom Jobim, Elis Regina"
    REM REPLAYGAIN_TRACK_GAIN -2.32 dB
    REM REPLAYGAIN_TRACK_PEAK 0.795013
    INDEX 00 32:02:19
    INDEX 01 32:03:35
  TRACK 12 AUDIO
    TITLE "Dindi"
    PERFORMER "Tom Jobim, Nelson Riddle E Sua Orquestra"
    REM REPLAYGAIN_TRACK_GAIN -1.63 dB
    REM REPLAYGAIN_TRACK_PEAK 0.851105
    INDEX 01 33:42:27
  TRACK 13 AUDIO
    TITLE "Meditação"
    PERFORMER "Tom Jobim"
    REM REPLAYGAIN_TRACK_GAIN -2.40 dB
    REM REPLAYGAIN_TRACK_PEAK 0.785217
    INDEX 01 36:18:34
  TRACK 14 AUDIO
    TITLE "O Que Tinha de Ser"
    PERFORMER "Tom Jobim, Elis Regina"
    REM REPLAYGAIN_TRACK_GAIN -0.18 dB
    REM REPLAYGAIN_TRACK_PEAK 0.999939
    INDEX 00 39:32:69
    INDEX 01 39:34:02
 
Лог проверки качества
AUDIOCHECKER v2.0 beta (build 457) - by Dester - opdester@freemail.hu
~~~~~~~~~~~~~~~~~~~~~~~~~~~~~~~~~~
Started at: terça-feira, 01. 01. 2019. - 3:31.57
1 file found
1 -===- D:\Downloads\Torrents\(1994) Tom Jobim; Série Grandes Nomes\Disc 1\Tom Jobim - Tom Jobim- Série Grandes Nomes.flac
  Extracted successfully
  Conclusion: this track is CDDA with probability 100%
  Tempfile successfully deleted.
Finished at: terça-feira, 01. 01. 2019. - 3:34.36 (operation time: 0:02.39)
 
Скриншот спектра частот

 
Disc 02

01. Por Toda a Minha Vida
02. Lamento do Morro
03. Soneto Da Separação
04. Amor Em Paz
05. Corcovado
06. O Grande Amor
07. Água De Beber
08. Insensatez
09. Só Danço Samba
10. The Girl From Ipanema
11. Samba Do Avião
12. Ela É Carioca
13. Inútil Paisagem
14. O Morro Não Tem Vez
 
Лог создания рипа
Exact Audio Copy V1.3 from 2. September 2016
EAC extraction logfile from 1. January 2019, 4:39
Tom Jobim / Tom Jobim: Série Grandes Nomes
Used drive  : HL-DT-STDVDRAM GH24NS90   Adapter: 1  ID: 0
Read mode               : Secure
Utilize accurate stream : Yes
Defeat audio cache      : Yes
Make use of C2 pointers : No
Read offset correction                      : 6
Overread into Lead-In and Lead-Out          : No
Fill up missing offset samples with silence : Yes
Delete leading and trailing silent blocks   : No
Null samples used in CRC calculations       : Yes
Used interface                              : Native Win32 interface for Win NT & 2000
Used output format              : User Defined Encoder
Selected bitrate                : 768 kBit/s
Quality                         : High
Add ID3 tag                     : No
Command line compressor         : C:\Program Files (x86)\Exact Audio Copy\FLAC\FLAC.EXE
Additional command line options : -6 -V -T "ARTIST=%artist%" -T "TITLE=%title%" -T "ALBUM=%albumtitle%" -T "DATE=%year%" -T "TRACKNUMBER=%tracknr%" -T "GENRE=%genre%" -T "COMMENT=%comment%" -T "BAND=%albuminterpret%" -T "ALBUMARTIST=%albuminterpret%" -T "COMPOSER=%composer%" %haslyrics%--tag-from-file=LYRICS="%lyricsfile%"%haslyrics% -T "DISCNUMBER=%cdnumber%" -T "TOTALDISCS=%totalcds%" -T "TOTALTRACKS=%numtracks%" %hascover%--picture="%coverfile%"%hascover% %source% -o %dest%
TOC of the extracted CD
     Track |   Start  |  Length  | Start sector | End sector
    ---------------------------------------------------------
        1  |  0:00.00 |  2:04.50 |         0    |     9349
        2  |  2:04.50 |  2:40.70 |      9350    |    21419
        3  |  4:45.45 |  2:20.57 |     21420    |    31976
        4  |  7:06.27 |  3:36.03 |     31977    |    48179
        5  | 10:42.30 |  4:20.45 |     48180    |    67724
        6  | 15:03.00 |  5:33.15 |     67725    |    92714
        7  | 20:36.15 |  2:48.02 |     92715    |   105316
        8  | 23:24.17 |  2:54.05 |    105317    |   118371
        9  | 26:18.22 |  3:36.63 |    118372    |   134634
       10  | 29:55.10 |  5:21.40 |    134635    |   158749
       11  | 35:16.50 |  2:13.27 |    158750    |   168751
       12  | 37:30.02 |  2:36.58 |    168752    |   180509
       13  | 40:06.60 |  3:10.12 |    180510    |   194771
       14  | 43:16.72 |  3:18.73 |    194772    |   209694
Range status and errors
Selected range
     Filename D:\Downloads\Torrents\(1994) Tom Jobim; Série Grandes Nomes\Disc 2\Tom Jobim - Tom Jobim- Série Grandes Nomes.wav
     Peak level 100.0 %
     Extraction speed 1.7 X
     Range quality 100.0 %
     Test CRC C1968E55
     Copy CRC C1968E55
     Copy OK
No errors occurred
AccurateRip summary
Track  1  not present in database
Track  2  not present in database
Track  3  not present in database
Track  4  not present in database
Track  5  not present in database
Track  6  not present in database
Track  7  not present in database
Track  8  not present in database
Track  9  not present in database
Track 10  not present in database
Track 11  not present in database
Track 12  not present in database
Track 13  not present in database
Track 14  not present in database
None of the tracks are present in the AccurateRip database
End of status report
---- CUETools DB Plugin V2.1.6
[CTDB TOCID: Dxp1IYmvX9x4ZLuniv0J6mjyToA-] found
Submit result: already submitted
Track | CTDB Status
  1   | (3/3) Accurately ripped
  2   | (3/3) Accurately ripped
  3   | (3/3) Accurately ripped
  4   | (3/3) Accurately ripped
  5   | (3/3) Accurately ripped
  6   | (3/3) Accurately ripped
  7   | (3/3) Accurately ripped
  8   | (3/3) Accurately ripped
  9   | (3/3) Accurately ripped
 10   | (3/3) Accurately ripped
 11   | (3/3) Accurately ripped
 12   | (3/3) Accurately ripped
 13   | (3/3) Accurately ripped
 14   | (3/3) Accurately ripped
==== Log checksum CD3EC83632C7D9329BC76E159D52C741B195602BB914DF876112FE88F6D208B2 ====
 
Содержание индексной карты (.CUE)
REM GENRE Bossa Nova
REM DATE 1995
REM DISCID C20AEB0E
REM COMMENT ExactAudioCopy v1.3
CATALOG 528 073-2
PERFORMER "Tom Jobim"
TITLE "Tom Jobim: Série Grandes Nomes"
REM REPLAYGAIN_ALBUM_GAIN -2.85 dB
REM REPLAYGAIN_ALBUM_PEAK 0.999969
FILE "Tom Jobim - Tom Jobim- Série Grandes Nomes.flac" WAVE
  TRACK 01 AUDIO
    TITLE "Por Toda a Minha Vida"
    PERFORMER "Tom Jobim, Elis Regina"
    REM REPLAYGAIN_TRACK_GAIN -2.27 dB
    REM REPLAYGAIN_TRACK_PEAK 0.890991
    INDEX 01 00:00:00
  TRACK 02 AUDIO
    TITLE "Lamento do Morro"
    PERFORMER "Tom Jobim"
    REM REPLAYGAIN_TRACK_GAIN -3.07 dB
    REM REPLAYGAIN_TRACK_PEAK 0.978729
    INDEX 00 02:03:05
    INDEX 01 02:04:50
  TRACK 03 AUDIO
    TITLE "Soneto Da Separação"
    PERFORMER "Tom Jobim, Elis Regina"
    REM REPLAYGAIN_TRACK_GAIN -1.97 dB
    REM REPLAYGAIN_TRACK_PEAK 0.999969
    INDEX 00 04:44:37
    INDEX 01 04:45:45
  TRACK 04 AUDIO
    TITLE "Amor Em Paz"
    PERFORMER "Tom Jobim"
    REM REPLAYGAIN_TRACK_GAIN -2.53 dB
    REM REPLAYGAIN_TRACK_PEAK 0.803772
    INDEX 01 07:06:27
  TRACK 05 AUDIO
    TITLE "Corcovado"
    PERFORMER "Tom Jobim, Astrud Gilberto, João Gilberto, Stan Getz"
    REM REPLAYGAIN_TRACK_GAIN -4.98 dB
    REM REPLAYGAIN_TRACK_PEAK 0.904053
    INDEX 00 10:40:58
    INDEX 01 10:42:30
  TRACK 06 AUDIO
    TITLE "O Grande Amor"
    PERFORMER "Tom Jobim, João Gilberto, Stan Getz"
    REM REPLAYGAIN_TRACK_GAIN -2.70 dB
    REM REPLAYGAIN_TRACK_PEAK 0.956573
    INDEX 01 15:03:00
  TRACK 07 AUDIO
    TITLE "Água De Beber"
    PERFORMER "Tom Jobim"
    REM REPLAYGAIN_TRACK_GAIN -1.97 dB
    REM REPLAYGAIN_TRACK_PEAK 0.732819
    INDEX 00 20:34:62
    INDEX 01 20:36:15
  TRACK 08 AUDIO
    TITLE "Insensatez"
    PERFORMER "Tom Jobim"
    REM REPLAYGAIN_TRACK_GAIN -3.09 dB
    REM REPLAYGAIN_TRACK_PEAK 0.909729
    INDEX 00 23:22:71
    INDEX 01 23:24:17
  TRACK 09 AUDIO
    TITLE "Só Danço Samba"
    PERFORMER "Tom Jobim, João Gilberto, Stan Getz"
    REM REPLAYGAIN_TRACK_GAIN -4.21 dB
    REM REPLAYGAIN_TRACK_PEAK 0.812347
    INDEX 00 26:17:24
    INDEX 01 26:18:22
  TRACK 10 AUDIO
    TITLE "The Girl From Ipanema"
    PERFORMER "Tom Jobim, Astrud Gilberto, João Gilberto, Stan Getz"
    REM REPLAYGAIN_TRACK_GAIN -2.61 dB
    REM REPLAYGAIN_TRACK_PEAK 0.833344
    INDEX 00 29:53:59
    INDEX 01 29:55:10
  TRACK 11 AUDIO
    TITLE "Samba Do Avião"
    PERFORMER "Tom Jobim, Nelson Riddle E Sua Orquestra"
    REM REPLAYGAIN_TRACK_GAIN -1.60 dB
    REM REPLAYGAIN_TRACK_PEAK 0.821320
    INDEX 00 35:15:13
    INDEX 01 35:16:50
  TRACK 12 AUDIO
    TITLE "Ela É Carioca"
    PERFORMER "Tom Jobim, Nelson Riddle E Sua Orquestra"
    REM REPLAYGAIN_TRACK_GAIN -2.16 dB
    REM REPLAYGAIN_TRACK_PEAK 0.685516
    INDEX 00 37:28:22
    INDEX 01 37:30:02
  TRACK 13 AUDIO
    TITLE "Inútil Paisagem"
    PERFORMER "Tom Jobim, Elis Regina"
    REM REPLAYGAIN_TRACK_GAIN +0.48 dB
    REM REPLAYGAIN_TRACK_PEAK 0.716064
    INDEX 00 40:05:23
    INDEX 01 40:06:60
  TRACK 14 AUDIO
    TITLE "O Morro Não Tem Vez"
    PERFORMER "Tom Jobim"
    REM REPLAYGAIN_TRACK_GAIN -2.56 dB
    REM REPLAYGAIN_TRACK_PEAK 0.852386
    INDEX 00 43:15:52
    INDEX 01 43:16:72
 
Лог проверки качества
AUDIOCHECKER v2.0 beta (build 457) - by Dester - opdester@freemail.hu
~~~~~~~~~~~~~~~~~~~~~~~~~~~~~~~~~~
Started at: terça-feira, 01. 01. 2019. - 4:40.25
1 file found
1 -===- D:\Downloads\Torrents\(1994) Tom Jobim; Série Grandes Nomes\Disc 2\Tom Jobim - Tom Jobim- Série Grandes Nomes.flac
  Extracted successfully
  Conclusion: this track is CDDA with probability 100%
  Tempfile successfully deleted.
Finished at: terça-feira, 01. 01. 2019. - 4:43.33 (operation time: 0:03.08)
 
Скриншот спектра частот

 
Disc 03
01. Valsa Do Porto Das Caixas
02. Vivo Sonhando
03. Só Tinha De Ser Com Você
04. Bonita
05. Surf Board
06. Triste
07. Wave
08. Retrato Em Branco E Preto
09. Sabiá
10. Chovendo Na Roseira
11. Pois É
12. Tide
13. Sue Ann
14. Ana Luiza
 
Лог создания рипа
Exact Audio Copy V1.3 from 2. September 2016
EAC extraction logfile from 1. January 2019, 5:33
Tom Jobim / Tom Jobim: Série Grandes Nomes
Used drive  : HL-DT-STDVDRAM GH24NS90   Adapter: 1  ID: 0
Read mode               : Secure
Utilize accurate stream : Yes
Defeat audio cache      : Yes
Make use of C2 pointers : No
Read offset correction                      : 6
Overread into Lead-In and Lead-Out          : No
Fill up missing offset samples with silence : Yes
Delete leading and trailing silent blocks   : No
Null samples used in CRC calculations       : Yes
Used interface                              : Native Win32 interface for Win NT & 2000
Used output format              : User Defined Encoder
Selected bitrate                : 768 kBit/s
Quality                         : High
Add ID3 tag                     : No
Command line compressor         : C:\Program Files (x86)\Exact Audio Copy\FLAC\FLAC.EXE
Additional command line options : -6 -V -T "ARTIST=%artist%" -T "TITLE=%title%" -T "ALBUM=%albumtitle%" -T "DATE=%year%" -T "TRACKNUMBER=%tracknr%" -T "GENRE=%genre%" -T "COMMENT=%comment%" -T "BAND=%albuminterpret%" -T "ALBUMARTIST=%albuminterpret%" -T "COMPOSER=%composer%" %haslyrics%--tag-from-file=LYRICS="%lyricsfile%"%haslyrics% -T "DISCNUMBER=%cdnumber%" -T "TOTALDISCS=%totalcds%" -T "TOTALTRACKS=%numtracks%" %hascover%--picture="%coverfile%"%hascover% %source% -o %dest%
TOC of the extracted CD
     Track |   Start  |  Length  | Start sector | End sector
    ---------------------------------------------------------
        1  |  0:00.00 |  3:22.00 |         0    |    15149
        2  |  3:22.00 |  2:58.40 |     15150    |    28539
        3  |  6:20.40 |  3:51.60 |     28540    |    45924
        4  | 10:12.25 |  2:10.17 |     45925    |    55691
        5  | 12:22.42 |  2:24.70 |     55692    |    66561
        6  | 14:47.37 |  2:42.20 |     66562    |    78731
        7  | 17:29.57 |  2:54.45 |     78732    |    91826
        8  | 20:24.27 |  3:06.27 |     91827    |   105803
        9  | 23:30.54 |  3:17.73 |    105804    |   120651
       10  | 26:48.52 |  3:13.38 |    120652    |   135164
       11  | 30:02.15 |  1:46.15 |    135165    |   143129
       12  | 31:48.30 |  3:39.62 |    143130    |   159616
       13  | 35:28.17 |  3:06.70 |    159617    |   173636
       14  | 38:35.12 |  5:27.50 |    173637    |   198211
Range status and errors
Selected range
     Filename D:\Downloads\Torrents\(1994) Tom Jobim; Série Grandes Nomes\Disc 3\Tom Jobim - Tom Jobim- Série Grandes Nomes.wav
     Peak level 100.0 %
     Extraction speed 1.6 X
     Range quality 100.0 %
     Test CRC 6E04DCF0
     Copy CRC 6E04DCF0
     Copy OK
No errors occurred
AccurateRip summary
Track  1  not present in database
Track  2  not present in database
Track  3  not present in database
Track  4  not present in database
Track  5  not present in database
Track  6  not present in database
Track  7  not present in database
Track  8  not present in database
Track  9  not present in database
Track 10  not present in database
Track 11  not present in database
Track 12  not present in database
Track 13  not present in database
Track 14  not present in database
None of the tracks are present in the AccurateRip database
End of status report
---- CUETools DB Plugin V2.1.6
[CTDB TOCID: ec7dLOcVXvxtRYs1Ap0eEPTk_M0-] found
Submit result: already submitted
Track | CTDB Status
  1   | (3/3) Accurately ripped
  2   | (3/3) Accurately ripped
  3   | (3/3) Accurately ripped
  4   | (3/3) Accurately ripped
  5   | (3/3) Accurately ripped
  6   | (3/3) Accurately ripped
  7   | (3/3) Accurately ripped
  8   | (3/3) Accurately ripped
  9   | (3/3) Accurately ripped
 10   | (3/3) Accurately ripped
 11   | (3/3) Accurately ripped
 12   | (3/3) Accurately ripped
 13   | (3/3) Accurately ripped
 14   | (3/3) Accurately ripped
==== Log checksum 1E6BB033CEC9220AE9629BEFF5CF12EB768EAD90029D47A5F8732F1A59BFAD3F ====
 
Содержание индексной карты (.CUE)
REM GENRE Bossa Nova
REM DATE 1995
REM DISCID 950A520E
REM COMMENT ExactAudioCopy v1.3
CATALOG 528 074-2
PERFORMER "Tom Jobim"
TITLE "Tom Jobim: Série Grandes Nomes"
REM REPLAYGAIN_ALBUM_GAIN -3.04 dB
REM REPLAYGAIN_ALBUM_PEAK 1.000000
FILE "Tom Jobim - Tom Jobim- Série Grandes Nomes.flac" WAVE
  TRACK 01 AUDIO
    TITLE "Valsa Do Porto Das Caixas"
    PERFORMER "Tom Jobim, Nelson Riddle E Sua Orquestra"
    REM REPLAYGAIN_TRACK_GAIN -2.01 dB
    REM REPLAYGAIN_TRACK_PEAK 0.999939
    INDEX 01 00:00:00
  TRACK 02 AUDIO
    TITLE "Vivo Sonhando"
    PERFORMER "Tom Jobim, João Gilberto, Stan Getz"
    REM REPLAYGAIN_TRACK_GAIN -5.18 dB
    REM REPLAYGAIN_TRACK_PEAK 0.794342
    INDEX 00 03:20:01
    INDEX 01 03:22:00
  TRACK 03 AUDIO
    TITLE "Só Tinha De Ser Com Você"
    PERFORMER "Tom Jobim, Elis Regina"
    REM REPLAYGAIN_TRACK_GAIN -1.34 dB
    REM REPLAYGAIN_TRACK_PEAK 0.955109
    INDEX 00 06:18:02
    INDEX 01 06:20:40
  TRACK 04 AUDIO
    TITLE "Bonita"
    PERFORMER "Tom Jobim, Nelson Riddle E Sua Orquestra"
    REM REPLAYGAIN_TRACK_GAIN -3.48 dB
    REM REPLAYGAIN_TRACK_PEAK 0.856384
    INDEX 00 10:11:23
    INDEX 01 10:12:25
  TRACK 05 AUDIO
    TITLE "Surf Board"
    PERFORMER "Tom Jobim, Nelson Riddle E Sua Orquestra"
    REM REPLAYGAIN_TRACK_GAIN -3.53 dB
    REM REPLAYGAIN_TRACK_PEAK 0.926392
    INDEX 00 12:19:43
    INDEX 01 12:22:42
  TRACK 06 AUDIO
    TITLE "Triste"
    PERFORMER "Tom Jobim, Elis Regina"
    REM REPLAYGAIN_TRACK_GAIN -0.27 dB
    REM REPLAYGAIN_TRACK_PEAK 0.999939
    INDEX 00 14:45:32
    INDEX 01 14:47:37
  TRACK 07 AUDIO
    TITLE "Wave"
    PERFORMER "Tom Jobim"
    REM REPLAYGAIN_TRACK_GAIN -3.94 dB
    REM REPLAYGAIN_TRACK_PEAK 0.891205
    INDEX 00 17:27:20
    INDEX 01 17:29:57
  TRACK 08 AUDIO
    TITLE "Retrato Em Branco E Preto"
    PERFORMER "Tom Jobim, Elis Regina"
    REM REPLAYGAIN_TRACK_GAIN -2.56 dB
    REM REPLAYGAIN_TRACK_PEAK 0.850861
    INDEX 00 20:21:22
    INDEX 01 20:24:27
  TRACK 09 AUDIO
    TITLE "Sabiá"
    PERFORMER "Tom Jobim"
    REM REPLAYGAIN_TRACK_GAIN -2.12 dB
    REM REPLAYGAIN_TRACK_PEAK 0.997650
    INDEX 00 23:28:66
    INDEX 01 23:30:54
  TRACK 10 AUDIO
    TITLE "Chovendo Na Roseira"
    PERFORMER "Tom Jobim, Elis Regina"
    REM REPLAYGAIN_TRACK_GAIN -2.79 dB
    REM REPLAYGAIN_TRACK_PEAK 0.999969
    INDEX 00 26:45:54
    INDEX 01 26:48:52
  TRACK 11 AUDIO
    TITLE "Pois É"
    PERFORMER "Tom Jobim, Elis Regina"
    REM REPLAYGAIN_TRACK_GAIN -0.82 dB
    REM REPLAYGAIN_TRACK_PEAK 0.891205
    INDEX 00 30:00:46
    INDEX 01 30:02:15
  TRACK 12 AUDIO
    TITLE "Tide"
    PERFORMER "Tom Jobim"
    REM REPLAYGAIN_TRACK_GAIN -2.80 dB
    REM REPLAYGAIN_TRACK_PEAK 1.000000
    INDEX 00 31:46:15
    INDEX 01 31:48:30
  TRACK 13 AUDIO
    TITLE "Sue Ann"
    PERFORMER "Tom Jobim"
    REM REPLAYGAIN_TRACK_GAIN -1.61 dB
    REM REPLAYGAIN_TRACK_PEAK 1.000000
    INDEX 00 35:25:56
    INDEX 01 35:28:17
  TRACK 14 AUDIO
    TITLE "Ana Luiza"
    PERFORMER "Tom Jobim"
    REM REPLAYGAIN_TRACK_GAIN -4.78 dB
    REM REPLAYGAIN_TRACK_PEAK 0.776245
    INDEX 00 38:32:30
    INDEX 01 38:35:12
 
Лог проверки качества
AUDIOCHECKER v2.0 beta (build 457) - by Dester - opdester@freemail.hu
~~~~~~~~~~~~~~~~~~~~~~~~~~~~~~~~~~
Started at: terça-feira, 01. 01. 2019. - 5:34.32
1 file found
1 -===- D:\Downloads\Torrents\(1994) Tom Jobim; Série Grandes Nomes\Disc 3\Tom Jobim - Tom Jobim- Série Grandes Nomes.flac
  Extracted successfully
  Conclusion: this track is CDDA with probability 100%
  Tempfile successfully deleted.
Finished at: terça-feira, 01. 01. 2019. - 5:37.39 (operation time: 0:03.07)
 
Скриншот спектра частот

 
Disc 04
01. Águas De Março
02. Crônica Da Casa Assassinada: Trem Para Cordisburgo/Chora Coração/O Jardim Abandonado/Milagre e Palhaços
03. Matita Perê
04. Nuvens Douradas
05. Rancho das Neves
06. Angela
07. Falando De Amor
08. Two Kites
09. Borzeguim
10. Luiza
11. Tema De Amor De Gabriela
12. Passarim
13. Anos Dourados
14. Bebel
 
Лог создания рипа
Exact Audio Copy V1.3 from 2. September 2016
EAC extraction logfile from 1. January 2019, 11:45
Tom Jobim / Tom Jobim: Série Grandes Nomes
Used drive  : HL-DT-STDVDRAM GH24NS90   Adapter: 1  ID: 0
Read mode               : Secure
Utilize accurate stream : Yes
Defeat audio cache      : Yes
Make use of C2 pointers : No
Read offset correction                      : 6
Overread into Lead-In and Lead-Out          : No
Fill up missing offset samples with silence : Yes
Delete leading and trailing silent blocks   : No
Null samples used in CRC calculations       : Yes
Used interface                              : Native Win32 interface for Win NT & 2000
Used output format              : User Defined Encoder
Selected bitrate                : 768 kBit/s
Quality                         : High
Add ID3 tag                     : No
Command line compressor         : C:\Program Files (x86)\Exact Audio Copy\FLAC\FLAC.EXE
Additional command line options : -6 -V -T "ARTIST=%artist%" -T "TITLE=%title%" -T "ALBUM=%albumtitle%" -T "DATE=%year%" -T "TRACKNUMBER=%tracknr%" -T "GENRE=%genre%" -T "COMMENT=%comment%" -T "BAND=%albuminterpret%" -T "ALBUMARTIST=%albuminterpret%" -T "COMPOSER=%composer%" %haslyrics%--tag-from-file=LYRICS="%lyricsfile%"%haslyrics% -T "DISCNUMBER=%cdnumber%" -T "TOTALDISCS=%totalcds%" -T "TOTALTRACKS=%numtracks%" %hascover%--picture="%coverfile%"%hascover% %source% -o %dest%
TOC of the extracted CD
     Track |   Start  |  Length  | Start sector | End sector
    ---------------------------------------------------------
        1  |  0:00.00 |  3:32.45 |         0    |    15944
        2  |  3:32.45 |  9:58.15 |     15945    |    60809
        3  | 13:30.60 |  7:12.67 |     60810    |    93276
        4  | 20:43.52 |  3:17.18 |     93277    |   108069
        5  | 24:00.70 |  4:04.15 |    108070    |   126384
        6  | 28:05.10 |  3:10.57 |    126385    |   140691
        7  | 31:15.67 |  2:36.33 |    140692    |   152424
        8  | 33:52.25 |  4:50.32 |    152425    |   174206
        9  | 38:42.57 |  4:24.03 |    174207    |   194009
       10  | 43:06.60 |  2:31.49 |    194010    |   205383
       11  | 45:38.34 |  7:57.26 |    205384    |   241184
       12  | 53:35.60 |  3:37.20 |    241185    |   257479
       13  | 57:13.05 |  3:43.42 |    257480    |   274246
       14  | 60:56.47 |  3:10.33 |    274247    |   288529
Range status and errors
Selected range
     Filename D:\Downloads\Torrents\(1994) Tom Jobim; Série Grandes Nomes\Disc 4\Tom Jobim - Tom Jobim- Série Grandes Nomes.wav
     Peak level 99.9 %
     Extraction speed 1.9 X
     Range quality 100.0 %
     Test CRC 8CEDFA10
     Copy CRC 8CEDFA10
     Copy OK
No errors occurred
AccurateRip summary
Track  1  not present in database
Track  2  not present in database
Track  3  not present in database
Track  4  not present in database
Track  5  not present in database
Track  6  not present in database
Track  7  not present in database
Track  8  not present in database
Track  9  not present in database
Track 10  not present in database
Track 11  not present in database
Track 12  not present in database
Track 13  not present in database
Track 14  not present in database
None of the tracks are present in the AccurateRip database
End of status report
---- CUETools DB Plugin V2.1.6
[CTDB TOCID: zCvlYkuw0mbrTFGPBRThTVUUFqo-] found
Submit result: already submitted
Track | CTDB Status
  1   | (3/3) Accurately ripped
  2   | (3/3) Accurately ripped
  3   | (3/3) Accurately ripped
  4   | (3/3) Accurately ripped
  5   | (3/3) Accurately ripped
  6   | (3/3) Accurately ripped
  7   | (3/3) Accurately ripped
  8   | (3/3) Accurately ripped
  9   | (3/3) Accurately ripped
 10   | (3/3) Accurately ripped
 11   | (3/3) Accurately ripped
 12   | (3/3) Accurately ripped
 13   | (3/3) Accurately ripped
 14   | (3/3) Accurately ripped
==== Log checksum B5C81DAAEF7E8237981044DA10C1E02DA8AB20893CD68B17289BDF35856D63BD ====
 
Содержание индексной карты (.CUE)
REM GENRE Bossa Nova
REM DATE 1995
REM DISCID C20F070E
REM COMMENT ExactAudioCopy v1.3
CATALOG 528 075-2
PERFORMER "Tom Jobim"
TITLE "Tom Jobim: Série Grandes Nomes"
REM REPLAYGAIN_ALBUM_GAIN -2.42 dB
REM REPLAYGAIN_ALBUM_PEAK 0.999939
FILE "Tom Jobim - Tom Jobim- Série Grandes Nomes.flac" WAVE
  TRACK 01 AUDIO
    TITLE "Águas De Março"
    PERFORMER "Tom Jobim, Elis Regina"
    REM REPLAYGAIN_TRACK_GAIN -3.01 dB
    REM REPLAYGAIN_TRACK_PEAK 0.827576
    INDEX 01 00:00:00
  TRACK 02 AUDIO
    TITLE "Crônica Da Casa Assassinada: Trem Para Cordisburgo/Chora Coração/O Jardim Abandonado/Milagre e Palhaços"
    PERFORMER "Tom Jobim"
    REM REPLAYGAIN_TRACK_GAIN -2.06 dB
    REM REPLAYGAIN_TRACK_PEAK 0.933197
    INDEX 01 03:32:45
  TRACK 03 AUDIO
    TITLE "Matita Perê"
    PERFORMER "Tom Jobim"
    REM REPLAYGAIN_TRACK_GAIN -2.68 dB
    REM REPLAYGAIN_TRACK_PEAK 0.891205
    INDEX 00 13:28:73
    INDEX 01 13:30:60
  TRACK 04 AUDIO
    TITLE "Nuvens Douradas"
    PERFORMER "Tom Jobim"
    REM REPLAYGAIN_TRACK_GAIN -3.63 dB
    REM REPLAYGAIN_TRACK_PEAK 0.933228
    INDEX 01 20:43:52
  TRACK 05 AUDIO
    TITLE "Rancho das Neves"
    PERFORMER "Tom Jobim"
    REM REPLAYGAIN_TRACK_GAIN -2.87 dB
    REM REPLAYGAIN_TRACK_PEAK 0.933197
    INDEX 01 24:00:70
  TRACK 06 AUDIO
    TITLE "Angela"
    PERFORMER "Tom Jobim"
    REM REPLAYGAIN_TRACK_GAIN -1.89 dB
    REM REPLAYGAIN_TRACK_PEAK 0.891571
    INDEX 00 28:03:61
    INDEX 01 28:05:10
  TRACK 07 AUDIO
    TITLE "Falando De Amor"
    PERFORMER "Tom Jobim, Miúcha"
    REM REPLAYGAIN_TRACK_GAIN -1.95 dB
    REM REPLAYGAIN_TRACK_PEAK 0.890778
    INDEX 01 31:15:67
  TRACK 08 AUDIO
    TITLE "Two Kites"
    PERFORMER "Tom Jobim"
    REM REPLAYGAIN_TRACK_GAIN -0.70 dB
    REM REPLAYGAIN_TRACK_PEAK 0.997681
    INDEX 01 33:52:25
  TRACK 09 AUDIO
    TITLE "Borzeguim"
    PERFORMER "Tom Jobim, A Nova Banda"
    REM REPLAYGAIN_TRACK_GAIN -2.72 dB
    REM REPLAYGAIN_TRACK_PEAK 0.865662
    INDEX 01 38:42:57
  TRACK 10 AUDIO
    TITLE "Luiza"
    PERFORMER "Tom Jobim, A Nova Banda"
    REM REPLAYGAIN_TRACK_GAIN -3.32 dB
    REM REPLAYGAIN_TRACK_PEAK 0.871002
    INDEX 00 43:05:61
    INDEX 01 43:06:60
  TRACK 11 AUDIO
    TITLE "Tema De Amor De Gabriela"
    PERFORMER "Tom Jobim, A Nova Banda"
    REM REPLAYGAIN_TRACK_GAIN -1.19 dB
    REM REPLAYGAIN_TRACK_PEAK 0.933197
    INDEX 01 45:38:34
  TRACK 12 AUDIO
    TITLE "Passarim"
    PERFORMER "Tom Jobim, A Nova Banda"
    REM REPLAYGAIN_TRACK_GAIN -4.10 dB
    REM REPLAYGAIN_TRACK_PEAK 0.999939
    INDEX 01 53:35:60
  TRACK 13 AUDIO
    TITLE "Anos Dourados"
    PERFORMER "Tom Jobim, A Nova Banda, Chico Buarque"
    REM REPLAYGAIN_TRACK_GAIN -2.19 dB
    REM REPLAYGAIN_TRACK_PEAK 0.933197
    INDEX 01 57:13:05
  TRACK 14 AUDIO
    TITLE "Bebel"
    PERFORMER "Tom Jobim, A Nova Banda"
    REM REPLAYGAIN_TRACK_GAIN -1.97 dB
    REM REPLAYGAIN_TRACK_PEAK 0.763123
    INDEX 01 60:56:47
 
Лог проверки качества
AUDIOCHECKER v2.0 beta (build 457) - by Dester - opdester@freemail.hu
~~~~~~~~~~~~~~~~~~~~~~~~~~~~~~~~~~
Started at: terça-feira, 01. 01. 2019. - 11:50.34
1 file found
1 -===- D:\Downloads\Torrents\(1994) Tom Jobim; Série Grandes Nomes\Disc 4\Tom Jobim - Tom Jobim- Série Grandes Nomes.flac
  Extracted successfully
  Conclusion: this track is CDDA with probability 100%
  Tempfile successfully deleted.
Finished at: terça-feira, 01. 01. 2019. - 11:54.54 (operation time: 0:04.19)
 
Скриншот спектра частот

Приватный:
Нет (DHT включён)
Размер:
1.05 Гб (1,131,942,498 байт) » файлов: 32
Участники:
0 раздают, 0 качают (0 участников всего)
Внешние участники:
3 раздают, 1 качают (4 участников всего) [ Обновить ]
Никого нет на раздаче - пишите ЛС M0p94ok
No seeders - write PM to M0p94ok
16:21
82
Нет комментариев. Ваш будет первым!