Поиск

1995 The Alan Broadbent Trio - Pacific Standard Time {Concord CCD-4664} [CD]

1995 The Alan Broadbent Trio - Pacific Standard Time {Concord CCD-4664} [CD]
Стили:
Дата записи диска:
23-24 января 1995
Место записи:
The Toy Shop, Los Angeles, CA, USA
Дата издания диска:
1 мая 1995
Издатель (лейбл):
Номер по каталогу:
CCD-4664
Треклист:

01.Summer Night [06:15]
02.This One's for Bud [06:01]
03.Easy Living [07:29]
04.Easy to Love [04:13]
05.I Should Care [05:56]
06.Django [06:57]
07.Beautiful Love [04:37]
08.In Love in Vain [06:51]
09.Someday My Prince Will Come [04:44]
10.I've Never Been in Love Before [04:32]
11.Reets & I [05:01]

Доп. инфо:

Страна-производитель диска: Россия
Год издания: 1995
Издатель (лейбл): PAR Media Music
Номер по каталогу: ZZ-95GP000 1862
Аудиокодек: FLAC (*.flac)
Тип рипа: tracks+.cue
Битрейт аудио: lossless
Продолжительность: 01:02:40
Источник (релизер): Рип с диска.
Наличие сканов в содержимом раздачи: да

Лог создания рипа
Exact Audio Copy V1.0 beta 3 from 29. August 2011
Отчёт EAC об извлечении, выполненном 26. апреля 2012, 16:44
The Alan Broadbent Trio / Pacific Standard Time
Дисковод: TSSTcorpCDDVDW SH-S223C   Adapter: 5  ID: 0
Режим чтения                 : Достоверность
Использование точного потока : Да
Отключение кэша аудио        : Да
Использование указателей C2  : Нет
Коррекция смещения при чтении                     : 697
Способность читать области Lead-in и Lead-out     : Нет
Заполнение пропущенных сэмплов тишиной            : Да
Удаление блоков с тишиной в начале и конце        : Нет
При вычислениях CRC использовались нулевые сэмплы : Да
Интерфейс                                         : Встроенный Win32-интерфейс для Win NT/2000
Обработка зазоров                                 : Добавлено к предыдущему треку
Выходной формат          : Пользовательский кодировщик
Выбранный битрейт        : 128 kBit/s
Качество                 : Высокий
Добавление ID3-тега      : Нет
Утилита сжатия           : C:\Program Files\Exact Audio Copy\Flac\flac.exe
Дополнительные параметры : -V -8 -T "Genre=%genre%" -T "Artist=%artist%" -T "Title=%title%" -T "Album=%albumtitle%" -T "Date=%year%" -T "Tracknumber=%tracknr%" -T "Comment=%comment%" %source%
TOC извлечённого CD
     Трек |   Старт  | Длительность | Начальный сектор | Конечный сектор
    ---------------------------------------------------------------------
       1  |  0:00.00 |    6:15.00   |           0      |      28124
       2  |  6:15.00 |    6:01.02   |       28125      |      55201
       3  | 12:16.02 |    7:29.73   |       55202      |      88949
       4  | 19:46.00 |    4:13.07   |       88950      |     107931
       5  | 23:59.07 |    5:56.73   |      107932      |     134704
       6  | 29:56.05 |    6:57.72   |      134705      |     166051
       7  | 36:54.02 |    4:37.03   |      166052      |     186829
       8  | 41:31.05 |    6:51.20   |      186830      |     217674
       9  | 48:22.25 |    4:44.52   |      217675      |     239026
      10  | 53:07.02 |    4:32.15   |      239027      |     259441
      11  | 57:39.17 |    5:01.33   |      259442      |     282049
Трек  1
     Имя файла E:\Ozifra\1995.The Alan Broadbent Trio - Pacific Standard Time\01. Summer Night.wav
     Длина предзазора  0:00:02.00
     Пиковый уровень 97.8 %
     Скорость извлечения 2.1 X
     Качество трека 100.0 %
     CRC теста A57FBE3A
     CRC копии A57FBE3A
     Точность не определена (достоверность 3)  [158954AA], AccurateRip вернул [956A424F]  (AR v2)
     Копирование... OK
Трек  2
     Имя файла E:\Ozifra\1995.The Alan Broadbent Trio - Pacific Standard Time\02. This One's for Bud.wav
     Длина предзазора  0:00:01.70
     Пиковый уровень 99.9 %
     Скорость извлечения 2.5 X
     Качество трека 100.0 %
     CRC теста 29B5DADE
     CRC копии 29B5DADE
     Точность не определена (достоверность 3)  [EB37C759], AccurateRip вернул [23E248F7]  (AR v2)
     Копирование... OK
Трек  3
     Имя файла E:\Ozifra\1995.The Alan Broadbent Trio - Pacific Standard Time\03. Easy Living.wav
     Длина предзазора  0:00:02.67
     Пиковый уровень 66.1 %
     Скорость извлечения 2.8 X
     Качество трека 100.0 %
     CRC теста F5EE5457
     CRC копии F5EE5457
     Точность не определена (достоверность 3)  [7A8B794A], AccurateRip вернул [0F355DB9]  (AR v2)
     Копирование... OK
Трек  4
     Имя файла E:\Ozifra\1995.The Alan Broadbent Trio - Pacific Standard Time\04. Easy to Love.wav
     Длина предзазора  0:00:01.63
     Пиковый уровень 68.0 %
     Скорость извлечения 2.9 X
     Качество трека 100.0 %
     CRC теста 75050C87
     CRC копии 75050C87
     Точность не определена (достоверность 3)  [6C4D9FEC], AccurateRip вернул [4C06AB2C]  (AR v2)
     Копирование... OK
Трек  5
     Имя файла E:\Ozifra\1995.The Alan Broadbent Trio - Pacific Standard Time\05. I Should Care.wav
     Длина предзазора  0:00:02.15
     Пиковый уровень 78.6 %
     Скорость извлечения 3.2 X
     Качество трека 100.0 %
     CRC теста DFAE1874
     CRC копии DFAE1874
     Точность не определена (достоверность 3)  [9D5D63AF], AccurateRip вернул [403D1CF2]  (AR v2)
     Копирование... OK
Трек  6
     Имя файла E:\Ozifra\1995.The Alan Broadbent Trio - Pacific Standard Time\06. Django.wav
     Длина предзазора  0:00:01.68
     Пиковый уровень 100.0 %
     Скорость извлечения 3.2 X
     Качество трека 99.9 %
     CRC теста 59FD7430
     CRC копии 59FD7430
     Точность не определена (достоверность 3)  [9BD73233], AccurateRip вернул [5559D635]  (AR v2)
     Копирование... OK
Трек  7
     Имя файла E:\Ozifra\1995.The Alan Broadbent Trio - Pacific Standard Time\07. Beautiful Love.wav
     Длина предзазора  0:00:01.62
     Пиковый уровень 100.0 %
     Скорость извлечения 3.5 X
     Качество трека 100.0 %
     CRC теста 31FF7198
     CRC копии 31FF7198
     Точность не определена (достоверность 3)  [E3FC2F89], AccurateRip вернул [E155663D]  (AR v2)
     Копирование... OK
Трек  8
     Имя файла E:\Ozifra\1995.The Alan Broadbent Trio - Pacific Standard Time\08. In Love in Vain.wav
     Длина предзазора  0:00:01.53
     Пиковый уровень 44.1 %
     Скорость извлечения 3.8 X
     Качество трека 100.0 %
     CRC теста F4058565
     CRC копии F4058565
     Точность не определена (достоверность 3)  [B632B928], AccurateRip вернул [F681339F]  (AR v2)
     Копирование... OK
Трек  9
     Имя файла E:\Ozifra\1995.The Alan Broadbent Trio - Pacific Standard Time\09. Someday My Prince Will Come.wav
     Длина предзазора  0:00:02.25
     Пиковый уровень 99.9 %
     Скорость извлечения 3.8 X
     Качество трека 100.0 %
     CRC теста FF0B1B1A
     CRC копии FF0B1B1A
     Точность не определена (достоверность 3)  [228A15DB], AccurateRip вернул [6A48A241]  (AR v2)
     Копирование... OK
Трек 10
     Имя файла E:\Ozifra\1995.The Alan Broadbent Trio - Pacific Standard Time\10. I've Never Been in Love Before.wav
     Длина предзазора  0:00:02.35
     Пиковый уровень 79.9 %
     Скорость извлечения 3.9 X
     Качество трека 100.0 %
     CRC теста 2CDC7FBC
     CRC копии 2CDC7FBC
     Точность не определена (достоверность 3)  [CBE905C0], AccurateRip вернул [9C54CB64]  (AR v2)
     Копирование... OK
Трек 11
     Имя файла E:\Ozifra\1995.The Alan Broadbent Trio - Pacific Standard Time\11. Reets & I.wav
     Длина предзазора  0:00:01.25
     Пиковый уровень 99.5 %
     Скорость извлечения 3.7 X
     Качество трека 99.9 %
     CRC теста 6B4EC238
     CRC копии 6B4EC238
     Точность не определена (достоверность 3)  [137235DC], AccurateRip вернул [F6C87760]  (AR v2)
     Копирование... OK
Ни один трек не прошёл проверки на точность
В вашей базе может быть иной вариант штамповки диска
Ошибок не произошло
Конец отчёта
==== Контрольная сумма отчёта 43FCFB769AEECE826CB469484E9FC434093FE25429858376FC9C5AA2D2647368 ====
Содержание индексной карты (.CUE)
REM GENRE Jazz
REM DATE 1995
REM DISCID A90EB00B
REM COMMENT "ExactAudioCopy v1.0b3"
PERFORMER "The Alan Broadbent Trio"
TITLE "Pacific Standard Time"
FILE "01. Summer Night.wav" WAVE
  TRACK 01 AUDIO
    TITLE "Summer Night"
    PERFORMER "The Alan Broadbent Trio"
    INDEX 01 00:00:00
  TRACK 02 AUDIO
    TITLE "This One's for Bud"
    PERFORMER "The Alan Broadbent Trio"
    INDEX 00 06:13:05
FILE "02. This One's for Bud.wav" WAVE
    INDEX 01 00:00:00
  TRACK 03 AUDIO
    TITLE "Easy Living"
    PERFORMER "The Alan Broadbent Trio"
    INDEX 00 05:58:10
FILE "03. Easy Living.wav" WAVE
    INDEX 01 00:00:00
  TRACK 04 AUDIO
    TITLE "Easy to Love"
    PERFORMER "The Alan Broadbent Trio"
    INDEX 00 07:28:10
FILE "04. Easy to Love.wav" WAVE
    INDEX 01 00:00:00
  TRACK 05 AUDIO
    TITLE "I Should Care"
    PERFORMER "The Alan Broadbent Trio"
    INDEX 00 04:10:67
FILE "05. I Should Care.wav" WAVE
    INDEX 01 00:00:00
  TRACK 06 AUDIO
    TITLE "Django"
    PERFORMER "The Alan Broadbent Trio"
    INDEX 00 05:55:05
FILE "06. Django.wav" WAVE
    INDEX 01 00:00:00
  TRACK 07 AUDIO
    TITLE "Beautiful Love"
    PERFORMER "The Alan Broadbent Trio"
    INDEX 00 06:56:10
FILE "07. Beautiful Love.wav" WAVE
    INDEX 01 00:00:00
  TRACK 08 AUDIO
    TITLE "In Love in Vain"
    PERFORMER "The Alan Broadbent Trio"
    INDEX 00 04:35:25
FILE "08. In Love in Vain.wav" WAVE
    INDEX 01 00:00:00
  TRACK 09 AUDIO
    TITLE "Someday My Prince Will Come"
    PERFORMER "The Alan Broadbent Trio"
    INDEX 00 06:48:70
FILE "09. Someday My Prince Will Come.wav" WAVE
    INDEX 01 00:00:00
  TRACK 10 AUDIO
    TITLE "I've Never Been in Love Before"
    PERFORMER "The Alan Broadbent Trio"
    INDEX 00 04:42:17
FILE "10. I've Never Been in Love Before.wav" WAVE
    INDEX 01 00:00:00
  TRACK 11 AUDIO
    TITLE "Reets & I"
    PERFORMER "The Alan Broadbent Trio"
    INDEX 00 04:30:65
FILE "11. Reets & I.wav" WAVE
    INDEX 01 00:00:00
Лог проверки качества
[CUETools log; Date: 27.04.2012 23:09:34; Version: 2.1.4]
[CTDB TOCID: ay49b7CNMvEfXFj8aEiBbYpp7Eo-] disk not present in database.
[AccurateRip ID: 001af266-00e77b36-a90eb00b] found.
Track   [  CRC   |   V2   ] Status
 01     [8e3dfd1d|158954aa] (0+0/3) No match
 02     [3e3b2016|eb37c759] (0+0/3) No match
 03     [1b9859eb|7a8b794a] (0+0/3) No match
 04     [7b5ee7ae|6c4d9fec] (0+0/3) No match
 05     [e30ae836|9d5d63af] (0+0/3) No match
 06     [63575ed4|9bd73233] (0+0/3) No match
 07     [d2765bbc|e3fc2f89] (0+0/3) No match
 08     [61e44725|b632b928] (0+0/3) No match
 09     [20b924fa|228a15db] (0+0/3) No match
 10     [96a8d110|cbe905c0] (0+0/3) No match
 11     [de726499|137235dc] (0+0/3) No match
Offsetted by 634:
 01     [956a424f] (3/3) Accurately ripped
 02     [23e248f7] (3/3) Accurately ripped
 03     [0f355db9] (3/3) Accurately ripped
 04     [4c06ab2c] (3/3) Accurately ripped
 05     [403d1cf2] (3/3) Accurately ripped
 06     [5559d635] (3/3) Accurately ripped
 07     [e155663d] (3/3) Accurately ripped
 08     [f681339f] (3/3) Accurately ripped
 09     [6a48a241] (3/3) Accurately ripped
 10     [9c54cb64] (3/3) Accurately ripped
 11     [f6c87760] (3/3) Accurately ripped
Track Peak [ CRC32  ] [W/O NULL] [  LOG   ]
 --  100,0 [9FABE041] [D0B410B0]
 01   97,8 [A57FBE3A] [731BE5F5]   CRC32
 02   99,9 [29B5DADE] [A89E13C9]   CRC32
 03   66,1 [F5EE5457] [F5B94A7D]   CRC32
 04   68,0 [75050C87] [26057206]   CRC32
 05   78,6 [DFAE1874] [03A0EE2A]   CRC32
 06  100,0 [59FD7430] [22582D16]   CRC32
 07  100,0 [31FF7198] [CA509243]   CRC32
 08   44,1 [F4058565] [E94318BC]   CRC32
 09   99,9 [FF0B1B1A] [2685C626]   CRC32
 10   79,9 [2CDC7FBC] [CF0CF11A]   CRC32
 11   99,5 [6B4EC238] [B386F8F7]   CRC32
Приватный:
Нет (DHT включён)
Размер:
308.38 Мб (323,363,951 байт) » файлов: 20
Участники:
0 раздают, 0 качают (0 участников всего)
Внешние участники:
2 раздают, 1 качают (3 участников всего) [ Обновить ]
For power users only: no seeders - write to support@pro-jazz.com. Для power user: нет сидеров - пишите на support@pro-jazz.com.
01:53
138
Нет комментариев. Ваш будет первым!