Поиск

1995 Ted Rosenthal - Live at Maybeck Recital Hall, Vol. 38 {Concord Jazz} [CD]

1995 Ted Rosenthal - Live at Maybeck Recital Hall, Vol. 38 {Concord Jazz} [CD]
Стили:
Дата записи диска:
30 октября 1994
Место записи:
Maybeck Recital Hall, Berkeley, CA, USA
Издатель (лейбл):
Номер по каталогу:
CCD 4648
Носитель:
CD
Тип рипа:
tracks+.cue
Аудиокодек:
FLAC (*.flac)
Битрейт аудио:
lossless
Время звучания:
00:56:11
Наличие сканов:
да

01. It's All Right With Me  06:01
02. Long Ago And Far Away  05:46
03. Lennie's Pennies  05:00
04. Better You Than Me  06:16
05. You're A Joy  05:33
06. Jesu, Joy Of Man's Desiring  04:24
07. Drop Me A Line  05:31
08. 117th Street  06:10
09. Gone With The Wind  05:24
10. Hallucinations  04:27
11. You've Got To Be Modernistic  04:26

Состав:
  • Robert Berenson    Assistant Engineer
  • Chip Deffaa    Liner Notes
  • George Horn    Mastering
  • Carl Jefferson    Executive Producer
  • David Luke    Engineer
  • Nick Phillips    Producer
  • Ted Rosenthal    Composer, Piano
  • Bud Spangler    Engineer
Лог создания рипа
EAC extraction logfile from 11. March 2007, 13:36 for CD
Ted Rosenthal / Maybeck Recital Hall Series, Vol. 38

Used drive  : TEAC    DVD+RW DV-W58E   Adapter: 1  ID: 0
Read mode   : Secure with C2, accurate stream, disable cache
Read offset correction : 686
Overread into Lead-In and Lead-Out : No

Used output format : Internal WAV Routines
                     44.100 Hz; 16 Bit; Stereo

Other options      : 
    Fill up missing offset samples with silence : Yes
    Delete leading and trailing silent blocks : No
    Installed external ASPI interface


Track  1
     Filename H:\EAC_rips\Jazz\Rosenthal - Live at Maybeck Recital Hall\(01) It's All Right With Me.wav

     Pre-gap length  0:00:02.00

     Peak level 92.9 %
     Track quality 100.0 %
     Test CRC 59EC0818
     Copy CRC 59EC0818
     Copy OK

Track  2
     Filename H:\EAC_rips\Jazz\Rosenthal - Live at Maybeck Recital Hall\(02) Long Ago (And Far Away).wav

     Peak level 59.9 %
     Track quality 100.0 %
     Test CRC 44889BF2
     Copy CRC 44889BF2
     Copy OK

Track  3
     Filename H:\EAC_rips\Jazz\Rosenthal - Live at Maybeck Recital Hall\(03) Lennie's Pennies.wav

     Peak level 84.4 %
     Track quality 100.0 %
     Test CRC 1BF7A381
     Copy CRC 1BF7A381
     Copy OK

Track  4
     Filename H:\EAC_rips\Jazz\Rosenthal - Live at Maybeck Recital Hall\(04) Better You Than Me.wav

     Peak level 78.3 %
     Track quality 100.0 %
     Test CRC C2B8D5D5
     Copy CRC C2B8D5D5
     Copy OK

Track  5
     Filename H:\EAC_rips\Jazz\Rosenthal - Live at Maybeck Recital Hall\(05) You're a Joy.wav

     Peak level 68.8 %
     Track quality 100.0 %
     Test CRC 63933403
     Copy CRC 63933403
     Copy OK

Track  6
     Filename H:\EAC_rips\Jazz\Rosenthal - Live at Maybeck Recital Hall\(06) Jesu, Joy of Man's Desiring.wav

     Peak level 74.6 %
     Track quality 100.0 %
     Test CRC C0B0B6EB
     Copy CRC C0B0B6EB
     Copy OK

Track  7
     Filename H:\EAC_rips\Jazz\Rosenthal - Live at Maybeck Recital Hall\(07) Drop Me a Line.wav

     Peak level 99.7 %
     Track quality 100.0 %
     Test CRC 73984CE8
     Copy CRC 73984CE8
     Copy OK

Track  8
     Filename H:\EAC_rips\Jazz\Rosenthal - Live at Maybeck Recital Hall\(08) 117th Street.wav

     Peak level 99.5 %
     Track quality 99.9 %
     Test CRC BD9CAB93
     Copy CRC BD9CAB93
     Copy OK

Track  9
     Filename H:\EAC_rips\Jazz\Rosenthal - Live at Maybeck Recital Hall\(09) Gone With the Wind.wav

     Peak level 77.3 %
     Track quality 100.0 %
     Test CRC 2D7B138A
     Copy CRC 2D7B138A
     Copy OK

Track 10
     Filename H:\EAC_rips\Jazz\Rosenthal - Live at Maybeck Recital Hall\(10) Hallucinations.wav

     Peak level 80.3 %
     Track quality 100.0 %
     Test CRC 973119E0
     Copy CRC 973119E0
     Copy OK

Track 11
     Filename H:\EAC_rips\Jazz\Rosenthal - Live at Maybeck Recital Hall\(11) You've Got to Be Modernistic.wav

     Peak level 99.6 %
     Track quality 99.9 %
     Test CRC 3BE71522
     Copy CRC 3BE71522
     Copy OK

No errors occured


End of status report
Приватный:
Да (DHT отключён)
Размер:
248.08 Мб (260,128,844 байт) » файлов: 23
Участники:
0 раздают, 0 качают (0 участников всего)
Внешние участники:
--- [ Обновить ]
09:11
616
Нет комментариев. Ваш будет первым!