Поиск

1995 Masahiko Togashi & J.J. Spirits - So What (2021) {Venus} [24-96]

1995 Masahiko Togashi & J.J. Spirits - So What (2021) {Venus} [24-96]
Стили:
Издатель (лейбл):
Номер по каталогу:
VHGD-201
Носитель:
WEB
Формат:
PCM
Тип рипа:
tracks
Контейнер:
FLAC (*.flac)
Количество каналов:
2.0
Разрядность/ЧД:
24/96
Битрейт аудио:
lossless
Время звучания:
01:05:14
Наличие сканов:
только обложка

1        Monk's Hat Blues~Milestone    14:53
2        All The Things You Are    11:33
3        Autumn In New York    9:10
4        It's You Or No On    13:16
5        So What~Monk's Hat Blues    16:26

Состав:
  • Kohsuke Mine — tenor saxophone
  • Masahiko Satoh — piano
  • Nobuyoshi Ino — bass
  • Masahiko Togashi — percussion
  • Tetsuo Hara — producer
Лог проверки качества
foobar2000 1.6.4 / Dynamic Range Meter 1.1.1
log date: 2021-07-24 07:44:55
--------------------------------------------------------------------------------
Analyzed: Masahiko Togashi, Kosuke Mine, Masahiko Satoh, Nobuyoshi Ino / So What
--------------------------------------------------------------------------------
DR         Peak         RMS     Duration Track
--------------------------------------------------------------------------------
DR5        0.00 dB    -7.34 dB     14:54 01-Monk's Hat Blues~Milestone
DR6        0.00 dB    -7.34 dB     11:31 02-All The Things You Are
DR7        0.00 dB   -10.10 dB      9:08 03-Autumn In New York
DR5        0.00 dB    -7.06 dB     13:15 04-It's You Or No On
DR5        0.00 dB    -6.64 dB     16:25 05-So What~Monk's Hat Blues
--------------------------------------------------------------------------------
Number of tracks:  5
Official DR value: DR6
Samplerate:        96000 Hz
Channels:          2
Bits per sample:   24
Bitrate:           3576 kbps
Codec:             FLAC
================================================================================
Приватный:
Нет (DHT включён)
Размер:
1.63 Гб (1,747,002,868 байт) » файлов: 8
Участники:
32 раздают, 1 качают (33 участников всего)
Внешние участники:
8 раздают, 2 качают (10 участников всего) [ Обновить ]
14:24
426
Нет комментариев. Ваш будет первым!