Поиск

1995 Gerry Mulligan - Midas Touch: Live in Berlin (2003) {Concord CCD-2169-2} [CD]

1995 Gerry Mulligan - Midas Touch: Live in Berlin (2003) {Concord CCD-2169-2} [CD]
Дата записи диска:
9 мая 1995
Место записи:
Konzerthaus Berlin
Дата издания диска:
11 февраля 2003
Издатель (лейбл):

Треклист:

01. Out Back Of The Barn 10:25
02. Intro & Comments By Gerry Mulligan 0:46
03. Wallflower 7:17
04. Midas Lives 9:43
05. Noblesse 7:45
06. Sun On The Stairs 8:09
07. Curtains 9:33
08. Walkin' Shoes 6:31
09. These Foolish Things 4:34

Состав:
  • Dave Brubeck Piano on "This Foolish Things" 
  • Nat Hentoff Liner Notes
  • Dean Johnson Double Bass (tracks 1,3-8) 
  • Gerry Mulligan Composer, Sax (Baritone) (tracks 1-9)
  • Ted Rosenthal Piano (tracks 1,3-8)
  • Ron Vincent Drums(tracks 1,3-8)
Доп. инфо:

Страна-производитель диска (релиза): USA
Носитель: CD
Битрейт аудио: lossless
Аудиокодек: FLAC (*.flac)
Тип рипа: tracks + (*.cue)
Время звучания: 01:09:16
Наличие сканов: web

 
Covers
2003 Gerry Mulligan — Midas Touch: Live in Berlin {Concord CCD-2169-2}2003 Gerry Mulligan — Midas Touch: Live in Berlin {Concord CCD-2169-2}
Лог создания рипа
Отчёт EAC об извлечении, выполненном 25. февраля 2007, 17:19 для диска:
Gerry Mulligan / Midas Touch

Дисковод: TSSTcorpCD/DVDW SH-S182D   Adapter: 1  ID: 0
Режим чтения: Достоверный (C2: нет, Точный поток: да, Отключение кэша: нет)
Комбинированное смещение чтения/записи: 0
Способность читать области Lead-in и Lead-out : Нет

Выходной формат: Внутренние WAV-операции
                     44.100 Гц; 16 бит; стерео

Другие параметры: 
    Заполнение пропущенных сэмплов тишиной : Да
    Удаление блоков с тишиной в начале и конце : Нет
    Встроенный Win32-интерфейс для Win NT/2000


Трек  1
     Имя файла E:\temp\Gerry Mulligan\Midas Touch\01 Out back of the barn.wav

     Пиковый уровень 96.5 %
     Качество трека 100.0 %
     CRC копии E3DD155E
     Копирование... OK

Трек  2
     Имя файла E:\temp\Gerry Mulligan\Midas Touch\02 Intro & comments by Gerry Mulligan.wav

     Пиковый уровень 74.6 %
     Качество трека 100.0 %
     CRC копии 42A0F577
     Копирование... OK

Трек  3
     Имя файла E:\temp\Gerry Mulligan\Midas Touch\03 Wallflower.wav

     Пиковый уровень 96.4 %
     Качество трека 100.0 %
     CRC копии 0F1CC1F0
     Копирование... OK

Трек  4
     Имя файла E:\temp\Gerry Mulligan\Midas Touch\04 Midas lives.wav

     Пиковый уровень 100.0 %
     Качество трека 100.0 %
     CRC копии 5543C099
     Копирование... OK

Трек  5
     Имя файла E:\temp\Gerry Mulligan\Midas Touch\05 Noblesse.wav

     Пиковый уровень 96.0 %
     Качество трека 100.0 %
     CRC копии 63030A41
     Копирование... OK

Трек  6
     Имя файла E:\temp\Gerry Mulligan\Midas Touch\06 Sun on the stairs.wav

     Пиковый уровень 96.5 %
     Качество трека 100.0 %
     CRC копии 6782E6F3
     Копирование... OK

Трек  7
     Имя файла E:\temp\Gerry Mulligan\Midas Touch\07 Curtains.wav

     Пиковый уровень 95.4 %
     Качество трека 100.0 %
     CRC копии 601B6105
     Копирование... OK

Трек  8
     Имя файла E:\temp\Gerry Mulligan\Midas Touch\08 Walkin' shoes.wav

     Пиковый уровень 96.2 %
     Качество трека 100.0 %
     CRC копии A50EAE92
     Копирование... OK

Трек  9
     Имя файла E:\temp\Gerry Mulligan\Midas Touch\09 These foolish things.wav

     Пиковый уровень 96.4 %
     Качество трека 100.0 %
     CRC копии 49252103
     Копирование... OK
Ошибок не произошло
Конец отчёта
Содержание индексной карты (.CUE)
REM GENRE Jazz
REM DATE 1995
PERFORMER "Gerry Mulligan"
TITLE "Midas Touch: Live in Berlin"
REM REPLAYGAIN_ALBUM_GAIN -1.27 dB
REM REPLAYGAIN_ALBUM_PEAK 1.000000
FILE "01 Out back of the barn.flac" WAVE
  TRACK 01 AUDIO
    TITLE "Out Back of the Barn"
    REM REPLAYGAIN_TRACK_GAIN -1.71 dB
    REM REPLAYGAIN_TRACK_PEAK 0.965820
    INDEX 01 00:00:00
FILE "02 Intro & comments by Gerry Mulligan.flac" WAVE
  TRACK 02 AUDIO
    TITLE "(Intro) and Comments by Gerry Mulligan"
    REM REPLAYGAIN_TRACK_GAIN +0.17 dB
    REM REPLAYGAIN_TRACK_PEAK 0.746887
    INDEX 01 00:00:00
FILE "03 Wallflower.flac" WAVE
  TRACK 03 AUDIO
    TITLE "Wallflower"
    REM REPLAYGAIN_TRACK_GAIN -2.21 dB
    REM REPLAYGAIN_TRACK_PEAK 0.964813
    INDEX 01 00:00:00
FILE "04 Midas lives.flac" WAVE
  TRACK 04 AUDIO
    TITLE "Midas Lives"
    REM REPLAYGAIN_TRACK_GAIN -1.54 dB
    REM REPLAYGAIN_TRACK_PEAK 1.000000
    INDEX 01 00:00:00
FILE "05 Noblesse.flac" WAVE
  TRACK 05 AUDIO
    TITLE "Noblesse"
    REM REPLAYGAIN_TRACK_GAIN +1.33 dB
    REM REPLAYGAIN_TRACK_PEAK 0.960724
    INDEX 01 00:00:00
FILE "06 Sun on the stairs.flac" WAVE
  TRACK 06 AUDIO
    TITLE "Sun on the Stairs"
    REM REPLAYGAIN_TRACK_GAIN -0.94 dB
    REM REPLAYGAIN_TRACK_PEAK 0.965088
    INDEX 01 00:00:00
FILE "07 Curtains.flac" WAVE
  TRACK 07 AUDIO
    TITLE "Curtains"
    REM REPLAYGAIN_TRACK_GAIN -0.58 dB
    REM REPLAYGAIN_TRACK_PEAK 0.954468
    INDEX 01 00:00:00
FILE "08 Walkin' shoes.flac" WAVE
  TRACK 08 AUDIO
    TITLE "Walking Shoes"
    REM REPLAYGAIN_TRACK_GAIN -0.30 dB
    REM REPLAYGAIN_TRACK_PEAK 0.962006
    INDEX 01 00:00:00
FILE "09 These foolish things.flac" WAVE
  TRACK 09 AUDIO
    TITLE "These Foolish Things"
    REM REPLAYGAIN_TRACK_GAIN -2.81 dB
    REM REPLAYGAIN_TRACK_PEAK 0.964966
    INDEX 01 00:00:00
14:47
953
Нет комментариев. Ваш будет первым!