Поиск

1995 Carl Allen - Testimonial {Atlantic 82755-2}

1995 Carl Allen - Testimonial {Atlantic 82755-2}
Страна-производитель диска (релиза):
USA
Дата записи диска:
6-7 декабря 1994
Дата издания диска:
2 мая 1995
Издатель (лейбл):
Номер по каталогу:
82755-2
Носитель:
CD
Битрейт аудио:
lossless
Аудиокодек:
FLAC (*.flac)
Тип рипа:
image+.cue
Время звучания:
01:06:26
Наличие сканов:
  • да
Релизёр (источник):
ssagwebster
Треклист:

01. Come Sunday [09:45]
02. Holy Land [05:30]
03. The Message [05:07]
04. Foot Pattin' [01:48]
05. Testimonial [07:35]
06. The Sacrifice [07:09]
07. The Presence Of Dr. B. [05:44]
08. Relativity [05:36]
09. Storefront Revival [03:07]
10. Tuesday Night Prayer Meeting [03:22]
11. Dark & Lovely [04:27]
12. A City Called Heaven [07:10]

Состав:
  • Carl Allen Composer, Drums, Producer
  • Cyrus Chestnut Composer, Organ, Piano
  • Josiah Gluck Engineer
  • Vincent Herring Saxophone
  • Kevin Mahogany Vocals
  • Christian McBride Bass
  • Anthony Monsey Piano
  • Nicholas Payton Trumpet
  • Reuben Rogers Bass
  • Daniel Sadownick Percussion
  • Mark Whitfield Guitar

Записано в Sound On Sound Recording Studios, New York, New York

Лог создания рипа
Exact Audio Copy V1.0 beta 3 from 29. August 2011

Отчёт EAC об извлечении, выполненном 10. января 2012, 15:15

Carl Allen / Testimonial

Дисковод: TSSTcorpCDDVDW SH-S223C   Adapter: 5  ID: 0

Режим чтения                 : Достоверность
Использование точного потока : Да
Отключение кэша аудио        : Да
Использование указателей C2  : Нет

Коррекция смещения при чтении                     : 697
Способность читать области Lead-in и Lead-out     : Нет
Заполнение пропущенных сэмплов тишиной            : Да
Удаление блоков с тишиной в начале и конце        : Нет
При вычислениях CRC использовались нулевые сэмплы : Да
Интерфейс                                         : Установленный внешний ASPI-интерфейс

Выходной формат          : Пользовательский кодировщик
Выбранный битрейт        : 128 kBit/s
Качество                 : Высокий
Добавление ID3-тега      : Нет
Утилита сжатия           : C:\Program Files\Exact Audio Copy\Flac\flac.exe
Дополнительные параметры :   -V -8 -T "Genre=%genre%" -T "Artist=%artist%" -T "Title=%title%" -T "Album=%albumtitle%" -T "Date=%year%" -T "Tracknumber=%tracknr%" -T "Comment=%comment%" %source%

TOC извлечённого CD

     Трек |   Старт  | Длительность | Начальный сектор | Конечный сектор
    ---------------------------------------------------------------------
       1  |  0:00.32 |    9:48.18   |          32      |      44149
       2  |  9:48.50 |    5:30.70   |       44150      |      68969
       3  | 15:19.45 |    5:08.00   |       68970      |      92069
       4  | 20:27.45 |    1:50.60   |       92070      |     100379
       5  | 22:18.30 |    7:37.42   |      100380      |     134696
       6  | 29:55.72 |    7:10.60   |      134697      |     167006
       7  | 37:06.57 |    5:47.15   |      167007      |     193046
       8  | 42:53.72 |    5:36.58   |      193047      |     218304
       9  | 48:30.55 |    3:08.52   |      218305      |     232456
      10  | 51:39.32 |    3:24.03   |      232457      |     247759
      11  | 55:03.35 |    4:30.02   |      247760      |     268011
      12  | 59:33.37 |    7:10.10   |      268012      |     300271

Характеристики диапазона извлечения и сообщения об ошибках

Выбранный диапазон

     Имя файла C:\Шахматы\1995.Carl Allen - Testimonial\Carl Allen - Testimonial.wav

     Пиковый уровень 95.0 %
     Скорость извлечения 3.5 X
     Качество диапазона 99.9 %
     CRC теста DF95731D
     CRC копии DF95731D
     Копирование... OK

Ошибок не произошло

AccurateRip: сводка

Трек  1  : извлечено точно (доверие 5)  [44EA85D2]  (AR v1)
Трек  2  : извлечено точно (доверие 5)  [28DAA92F]  (AR v1)
Трек  3  : извлечено точно (доверие 5)  [F7FCFA7C]  (AR v1)
Трек  4  : извлечено точно (доверие 5)  [FE7CA4EB]  (AR v1)
Трек  5  : извлечено точно (доверие 5)  [E75FACC3]  (AR v1)
Трек  6  : извлечено точно (доверие 5)  [E64DFB57]  (AR v1)
Трек  7  : извлечено точно (доверие 5)  [246CF938]  (AR v1)
Трек  8  : извлечено точно (доверие 5)  [182CDC45]  (AR v1)
Трек  9  : извлечено точно (доверие 5)  [0DBD919C]  (AR v1)
Трек 10  : извлечено точно (доверие 5)  [589A44C6]  (AR v1)
Трек 11  : извлечено точно (доверие 5)  [0940B54D]  (AR v1)
Трек 12  : извлечено точно (доверие 5)  [17833CA4]  (AR v1)

Все треки извлечены точно

Конец отчёта

==== Контрольная сумма отчёта 178AD9FE4CE619C4C7D195E6CA972DCE4BA8EFAF8A13887223D6BDBF7D5801E4 ====
Содержание индексной карты (.CUE)
REM GENRE Jazz
REM DATE 1995
REM DISCID 9D0FA30C
REM COMMENT "ExactAudioCopy v1.0b3"
CATALOG 0075678275524
PERFORMER "Carl Allen"
TITLE "Testimonial"
FILE "Carl Allen - Testimonial.flac" WAVE
  TRACK 01 AUDIO
    TITLE "Come Sunday"
    PERFORMER "Carl Allen"
    INDEX 00 00:00:00
    INDEX 01 00:00:32
  TRACK 02 AUDIO
    TITLE "Holy Land"
    PERFORMER "Carl Allen"
    INDEX 00 09:45:45
    INDEX 01 09:48:50
  TRACK 03 AUDIO
    TITLE "The Message"
    PERFORMER "Carl Allen"
    INDEX 01 15:19:45
  TRACK 04 AUDIO
    TITLE "Foot Pattin'"
    PERFORMER "Carl Allen"
    INDEX 00 20:26:67
    INDEX 01 20:27:45
  TRACK 05 AUDIO
    TITLE "Testimonial"
    PERFORMER "Carl Allen"
    INDEX 00 22:16:40
    INDEX 01 22:18:30
  TRACK 06 AUDIO
    TITLE "The Sacrifice"
    PERFORMER "Carl Allen"
    INDEX 00 29:53:37
    INDEX 01 29:55:72
  TRACK 07 AUDIO
    TITLE "The Presence Of Dr. B."
    PERFORMER "Carl Allen"
    INDEX 00 37:05:37
    INDEX 01 37:06:57
  TRACK 08 AUDIO
    TITLE "Relativity"
    PERFORMER "Carl Allen"
    INDEX 00 42:51:47
    INDEX 01 42:53:72
  TRACK 09 AUDIO
    TITLE "Storefront Revival"
    PERFORMER "Carl Allen"
    INDEX 00 48:30:50
    INDEX 01 48:30:55
  TRACK 10 AUDIO
    TITLE "Tuesday Night Prayer Meeting"
    PERFORMER "Carl Allen"
    INDEX 00 51:38:45
    INDEX 01 51:39:32
  TRACK 11 AUDIO
    TITLE "Dark & Lovely"
    PERFORMER "Carl Allen"
    INDEX 00 55:02:05
    INDEX 01 55:03:35
  TRACK 12 AUDIO
    TITLE "A City Called Heaven"
    PERFORMER "Carl Allen"
    INDEX 00 59:31:22
    INDEX 01 59:33:37
Приватный:
Нет (DHT включён)
Размер:
416.44 Мб (436,674,116 байт) » файлов: 11
Участники:
0 раздают, 0 качают (0 участников всего)
Внешние участники:
Нет внешних трекеров [ Обновить ]
15:02
48
RSS
Нет комментариев. Ваш будет первым!