Поиск

1995 Arto Lindsay Trio - Aggregates 1-26 {Knitting Factory Works KFW 164} [CD]

1995 Arto Lindsay Trio - Aggregates 1-26 {Knitting Factory Works KFW 164} [CD]
Лог создания рипа
Exact Audio Copy V1.3 from 2. September 2016

EAC extraction logfile from 11. April 2018, 9:19

Arto Lindsay Trio / Aggregates 1-26

Used drive  : ATAPI   iHAS122   F   Adapter: 1  ID: 0

Read mode               : Secure
Utilize accurate stream : Yes
Defeat audio cache      : Yes
Make use of C2 pointers : No

Read offset correction                      : 6
Overread into Lead-In and Lead-Out          : No
Fill up missing offset samples with silence : Yes
Delete leading and trailing silent blocks   : No
Null samples used in CRC calculations       : Yes
Used interface                              : Native Win32 interface for Win NT & 2000
Gap handling                                : Appended to previous track

Used output format              : User Defined Encoder
Selected bitrate                : 128 kBit/s
Quality                         : High
Add ID3 tag                     : No
Command line compressor         : C:\Program Files (x86)\Exact Audio Copy\Flac\flac.exe
Additional command line options : -V -8 -T "Genre=%genre%" -T "Artist=%artist%" -T "Title=%title%" -T "Album=%albumtitle%" -T "Date=%year%" -T "Tracknumber=%tracknr%" -T "Comment=%comment%" %source%

TOC of the extracted CD

     Track |   Start  |  Length  | Start sector | End sector
    ---------------------------------------------------------
        1  |  0:00.50 |  1:13.40 |        50    |     5564
        2  |  1:14.15 |  3:36.45 |      5565    |    21809
        3  |  4:50.60 |  2:24.02 |     21810    |    32611
        4  |  7:14.62 |  0:46.00 |     32612    |    36061
        5  |  8:00.62 |  1:59.23 |     36062    |    45009
        6  | 10:00.10 |  2:45.27 |     45010    |    57411
        7  | 12:45.37 |  0:53.38 |     57412    |    61424
        8  | 13:39.00 |  0:54.05 |     61425    |    65479
        9  | 14:33.05 |  3:46.15 |     65480    |    82444
       10  | 18:19.20 |  2:32.22 |     82445    |    93866
       11  | 20:51.42 |  2:21.08 |     93867    |   104449
       12  | 23:12.50 |  2:13.32 |    104450    |   114456
       13  | 25:26.07 |  3:19.60 |    114457    |   129441
       14  | 28:45.67 |  1:31.18 |    129442    |   136284
       15  | 30:17.10 |  2:09.35 |    136285    |   145994
       16  | 32:26.45 |  1:39.62 |    145995    |   153481
       17  | 34:06.32 |  0:55.25 |    153482    |   157631
       18  | 35:01.57 |  0:40.40 |    157632    |   160671
       19  | 35:42.22 |  1:37.28 |    160672    |   167974
       20  | 37:19.50 |  0:26.15 |    167975    |   169939
       21  | 37:45.65 |  1:07.57 |    169940    |   175021
       22  | 38:53.47 |  3:46.53 |    175022    |   192024
       23  | 42:40.25 |  0:48.10 |    192025    |   195634
       24  | 43:28.35 |  0:45.00 |    195635    |   199009
       25  | 44:13.35 |  2:10.62 |    199010    |   208821
       26  | 46:24.22 |  0:41.28 |    208822    |   211924

Track  1

     Filename F:\MyCD-iPooh27\01 - Be Great.wav

     Pre-gap length  0:00:02.50

     Peak level 95.5 %
     Extraction speed 3.8 X
     Track quality 100.0 %
     Test CRC 86E31C77
     Copy CRC 86E31C77
     Accurately ripped (confidence 5)  [1361764C]  (AR v2)
     Copy OK

Track  2

     Filename F:\MyCD-iPooh27\02 - Recognize.wav

     Pre-gap length  0:00:00.17

     Peak level 97.7 %
     Extraction speed 5.4 X
     Track quality 100.0 %
     Test CRC C5E2E59C
     Copy CRC C5E2E59C
     Accurately ripped (confidence 4)  [39EC00DC]  (AR v2)
     Copy OK

Track  3

     Filename F:\MyCD-iPooh27\03 - In Love.wav

     Peak level 91.8 %
     Extraction speed 5.4 X
     Track quality 100.0 %
     Test CRC CCBE4734
     Copy CRC CCBE4734
     Accurately ripped (confidence 5)  [450DD850]  (AR v2)
     Copy OK

Track  4

     Filename F:\MyCD-iPooh27\04 - GTR. Drums #2.wav

     Peak level 95.3 %
     Extraction speed 3.9 X
     Track quality 100.0 %
     Test CRC 746F8B67
     Copy CRC 746F8B67
     Accurately ripped (confidence 5)  [7EB3EA5C]  (AR v2)
     Copy OK

Track  5

     Filename F:\MyCD-iPooh27\05 - Stitches.wav

     Peak level 97.7 %
     Extraction speed 5.5 X
     Track quality 100.0 %
     Test CRC B3A3A522
     Copy CRC B3A3A522
     Accurately ripped (confidence 5)  [8CAA3533]  (AR v2)
     Copy OK

Track  6

     Filename F:\MyCD-iPooh27\06 - Imbue.wav

     Peak level 95.5 %
     Extraction speed 5.3 X
     Track quality 99.9 %
     Test CRC 0C20E3A4
     Copy CRC 0C20E3A4
     Accurately ripped (confidence 4)  [6B51988D]  (AR v2)
     Copy OK

Track  7

     Filename F:\MyCD-iPooh27\07 - Tap GTR..wav

     Peak level 44.5 %
     Extraction speed 4.5 X
     Track quality 100.0 %
     Test CRC 5F886C2C
     Copy CRC 5F886C2C
     Accurately ripped (confidence 6)  [F2CEA7C5]  (AR v2)
     Copy OK

Track  8

     Filename F:\MyCD-iPooh27\08 - Tap.wav

     Peak level 97.7 %
     Extraction speed 3.3 X
     Track quality 99.8 %
     Test CRC 856AE18B
     Copy CRC 856AE18B
     Accurately ripped (confidence 4)  [783D7083]  (AR v2)
     Copy OK

Track  9

     Filename F:\MyCD-iPooh27\09 - Absurd Children.wav

     Pre-gap length  0:00:00.01

     Peak level 95.5 %
     Extraction speed 7.0 X
     Track quality 100.0 %
     Test CRC F38B836A
     Copy CRC F38B836A
     Accurately ripped (confidence 4)  [96618A9A]  (AR v2)
     Copy OK

Track 10

     Filename F:\MyCD-iPooh27\10 - Noise.wav

     Peak level 97.7 %
     Extraction speed 6.9 X
     Track quality 100.0 %
     Test CRC FDD9F8D4
     Copy CRC FDD9F8D4
     Accurately ripped (confidence 5)  [287597F2]  (AR v2)
     Copy OK

Track 11

     Filename F:\MyCD-iPooh27\11 - Flag of Friendship.wav

     Peak level 97.7 %
     Extraction speed 5.8 X
     Track quality 99.9 %
     Test CRC 87E8A6A7
     Copy CRC 87E8A6A7
     Accurately ripped (confidence 6)  [C8598278]  (AR v2)
     Copy OK

Track 12

     Filename F:\MyCD-iPooh27\12 - Venus.wav

     Pre-gap length  0:00:00.07

     Peak level 97.7 %
     Extraction speed 5.9 X
     Track quality 99.9 %
     Test CRC ABFCEF19
     Copy CRC ABFCEF19
     Accurately ripped (confidence 6)  [20837265]  (AR v2)
     Copy OK

Track 13

     Filename F:\MyCD-iPooh27\13 - Looks Like You.wav

     Pre-gap length  0:00:00.34

     Peak level 97.7 %
     Extraction speed 7.9 X
     Track quality 100.0 %
     Test CRC 48FE34B9
     Copy CRC 48FE34B9
     Accurately ripped (confidence 6)  [882FA4DE]  (AR v2)
     Copy OK

Track 14

     Filename F:\MyCD-iPooh27\14 - Flourish.wav

     Peak level 96.3 %
     Extraction speed 6.9 X
     Track quality 100.0 %
     Test CRC 96A35CE6
     Copy CRC 96A35CE6
     Accurately ripped (confidence 4)  [B505CF5C]  (AR v2)
     Copy OK

Track 15

     Filename F:\MyCD-iPooh27\15 - Awfully Short.wav

     Peak level 100.0 %
     Extraction speed 6.1 X
     Track quality 99.9 %
     Test CRC 35CAF2CE
     Copy CRC 35CAF2CE
     Accurately ripped (confidence 4)  [9780003C]  (AR v2)
     Copy OK

Track 16

     Filename F:\MyCD-iPooh27\16 - Voice & Lips.wav

     Peak level 98.7 %
     Extraction speed 7.4 X
     Track quality 100.0 %
     Test CRC 21F25A31
     Copy CRC 21F25A31
     Accurately ripped (confidence 5)  [04DBC158]  (AR v2)
     Copy OK

Track 17

     Filename F:\MyCD-iPooh27\17 - GTR. Bass.wav

     Peak level 90.1 %
     Extraction speed 6.1 X
     Track quality 100.0 %
     Test CRC B9541991
     Copy CRC B9541991
     Accurately ripped (confidence 5)  [9D886277]  (AR v2)
     Copy OK

Track 18

     Filename F:\MyCD-iPooh27\18 - Founder.wav

     Peak level 97.7 %
     Extraction speed 5.2 X
     Track quality 100.0 %
     Test CRC DE66526D
     Copy CRC DE66526D
     Accurately ripped (confidence 6)  [FC3FF326]  (AR v2)
     Copy OK

Track 19

     Filename F:\MyCD-iPooh27\19 - Two.wav

     Peak level 98.5 %
     Extraction speed 7.5 X
     Track quality 100.0 %
     Test CRC 4427241E
     Copy CRC 4427241E
     Accurately ripped (confidence 5)  [DED752EB]  (AR v2)
     Copy OK

Track 20

     Filename F:\MyCD-iPooh27\20 - 3.wav

     Peak level 96.0 %
     Extraction speed 2.8 X
     Track quality 99.5 %
     Test CRC E72A7F2D
     Copy CRC E72A7F2D
     Accurately ripped (confidence 5)  [0EA52072]  (AR v2)
     Copy OK

Track 21

     Filename F:\MyCD-iPooh27\21 - Four.wav

     Peak level 95.5 %
     Extraction speed 6.7 X
     Track quality 100.0 %
     Test CRC EF1C3ACC
     Copy CRC EF1C3ACC
     Accurately ripped (confidence 5)  [104A1337]  (AR v2)
     Copy OK

Track 22

     Filename F:\MyCD-iPooh27\22 - Bag Pipes.wav

     Peak level 95.6 %
     Extraction speed 8.0 X
     Track quality 99.9 %
     Test CRC DCAE0D97
     Copy CRC DCAE0D97
     Accurately ripped (confidence 4)  [5DC616C9]  (AR v2)
     Copy OK

Track 23

     Filename F:\MyCD-iPooh27\23 - Drug Finger.wav

     Peak level 97.3 %
     Extraction speed 4.3 X
     Track quality 99.7 %
     Test CRC A07450F1
     Copy CRC A07450F1
     Accurately ripped (confidence 5)  [C1D27DF3]  (AR v2)
     Copy OK

Track 24

     Filename F:\MyCD-iPooh27\24 - GTR. Drums #1.wav

     Peak level 48.1 %
     Extraction speed 6.0 X
     Track quality 100.0 %
     Test CRC 637373BD
     Copy CRC 637373BD
     Accurately ripped (confidence 5)  [CEA4FE3B]  (AR v2)
     Copy OK

Track 25

     Filename F:\MyCD-iPooh27\25 - Head in a Paper Bag.wav

     Peak level 97.7 %
     Extraction speed 7.0 X
     Track quality 99.9 %
     Test CRC 95ED25AC
     Copy CRC 95ED25AC
     Accurately ripped (confidence 4)  [00F36749]  (AR v2)
     Copy OK

Track 26

     Filename F:\MyCD-iPooh27\26 - Very Good.wav

     Peak level 35.5 %
     Extraction speed 5.7 X
     Track quality 100.0 %
     Test CRC FDF2AC5F
     Copy CRC FDF2AC5F
     Accurately ripped (confidence 4)  [29CA2FCA]  (AR v2)
     Copy OK

All tracks accurately ripped

No errors occurred

End of status report

---- CUETools DB Plugin V2.1.6

[CTDB TOCID: nE2jo.Zf6JP1CI4yAxP4MnH0x0E-] found
Submit result: nE2jo.Zf6JP1CI4yAxP4MnH0x0E- has been confirmed
Track | CTDB Status
  1   | (10/10) Accurately ripped
  2   | (10/10) Accurately ripped
  3   | (10/10) Accurately ripped
  4   | (10/10) Accurately ripped
  5   | (10/10) Accurately ripped
  6   | (10/10) Accurately ripped
  7   | (10/10) Accurately ripped
  8   | (10/10) Accurately ripped
  9   | (10/10) Accurately ripped
 10   | (10/10) Accurately ripped
 11   | (10/10) Accurately ripped
 12   | (10/10) Accurately ripped
 13   | ( 9/10) Accurately ripped
 14   | (10/10) Accurately ripped
 15   | (10/10) Accurately ripped
 16   | (10/10) Accurately ripped
 17   | (10/10) Accurately ripped
 18   | (10/10) Accurately ripped
 19   | (10/10) Accurately ripped
 20   | (10/10) Accurately ripped
 21   | (10/10) Accurately ripped
 22   | (10/10) Accurately ripped
 23   | ( 9/10) Accurately ripped
 24   | (10/10) Accurately ripped
 25   | (10/10) Accurately ripped
 26   | (10/10) Accurately ripped

==== Log checksum E4B9994D2FFF78AFC5F558FA45C6BCC96370B665BF1069BCDB8B48402EA70782 ====
Содержание индексной карты (.CUE)
REM GENRE Experimental
REM DATE 1995
REM DISCID 630B091A
REM COMMENT "ExactAudioCopy v1.3"
PERFORMER "Arto Lindsay"
TITLE "Aggregates 1-26"
FILE "01 - Be Great.wav" WAVE
  TRACK 01 AUDIO
    TITLE "Be Great"
    PERFORMER "Arto Lindsay"
    PREGAP 00:00:50
    INDEX 01 00:00:00
  TRACK 02 AUDIO
    TITLE "Recognize"
    PERFORMER "Arto Lindsay"
    INDEX 00 01:13:23
FILE "02 - Recognize.wav" WAVE
    INDEX 01 00:00:00
FILE "03 - In Love.wav" WAVE
  TRACK 03 AUDIO
    TITLE "In Love"
    PERFORMER "Arto Lindsay"
    INDEX 01 00:00:00
FILE "04 - Gtr. Drums No.2.wav" WAVE
  TRACK 04 AUDIO
    TITLE "Gtr. Drums No.2"
    PERFORMER "Arto Lindsay"
    INDEX 01 00:00:00
FILE "05 - Stitches.wav" WAVE
  TRACK 05 AUDIO
    TITLE "Stitches"
    PERFORMER "Arto Lindsay"
    INDEX 01 00:00:00
FILE "06 - Imbue.wav" WAVE
  TRACK 06 AUDIO
    TITLE "Imbue"
    PERFORMER "Arto Lindsay"
    INDEX 01 00:00:00
FILE "07 - Tap Gtr..wav" WAVE
  TRACK 07 AUDIO
    TITLE "Tap Gtr."
    PERFORMER "Arto Lindsay"
    INDEX 01 00:00:00
FILE "08 - Tap.wav" WAVE
  TRACK 08 AUDIO
    TITLE "Tap"
    PERFORMER "Arto Lindsay"
    INDEX 01 00:00:00
  TRACK 09 AUDIO
    TITLE "Absurd Children"
    PERFORMER "Arto Lindsay"
    INDEX 00 00:54:04
FILE "09 - Absurd Children.wav" WAVE
    INDEX 01 00:00:00
FILE "10 - Noise.wav" WAVE
  TRACK 10 AUDIO
    TITLE "Noise"
    PERFORMER "Arto Lindsay"
    INDEX 01 00:00:00
FILE "11 - Flag of Friendship.wav" WAVE
  TRACK 11 AUDIO
    TITLE "Flag of Friendship"
    PERFORMER "Arto Lindsay"
    INDEX 01 00:00:00
  TRACK 12 AUDIO
    TITLE "Venus"
    PERFORMER "Arto Lindsay"
    INDEX 00 02:21:01
FILE "12 - Venus.wav" WAVE
    INDEX 01 00:00:00
  TRACK 13 AUDIO
    TITLE "Looks Like You"
    PERFORMER "Arto Lindsay"
    INDEX 00 02:12:73
FILE "13 - Looks Like You.wav" WAVE
    INDEX 01 00:00:00
FILE "14 - Flourish.wav" WAVE
  TRACK 14 AUDIO
    TITLE "Flourish"
    PERFORMER "Arto Lindsay"
    INDEX 01 00:00:00
FILE "15 - Awfully Short.wav" WAVE
  TRACK 15 AUDIO
    TITLE "Awfully Short"
    PERFORMER "Arto Lindsay"
    INDEX 01 00:00:00
FILE "16 - Voice & Lips.wav" WAVE
  TRACK 16 AUDIO
    TITLE "Voice & Lips"
    PERFORMER "Arto Lindsay"
    INDEX 01 00:00:00
FILE "17 - Gtr. Bass.wav" WAVE
  TRACK 17 AUDIO
    TITLE "Gtr. Bass"
    PERFORMER "Arto Lindsay"
    INDEX 01 00:00:00
FILE "18 - Founder.wav" WAVE
  TRACK 18 AUDIO
    TITLE "Founder"
    PERFORMER "Arto Lindsay"
    INDEX 01 00:00:00
FILE "19 - Two.wav" WAVE
  TRACK 19 AUDIO
    TITLE "Two"
    PERFORMER "Arto Lindsay"
    INDEX 01 00:00:00
FILE "20 - 3.wav" WAVE
  TRACK 20 AUDIO
    TITLE "3"
    PERFORMER "Arto Lindsay"
    INDEX 01 00:00:00
FILE "21 - Four.wav" WAVE
  TRACK 21 AUDIO
    TITLE "Four"
    PERFORMER "Arto Lindsay"
    INDEX 01 00:00:00
FILE "22 - Bag Pipes.wav" WAVE
  TRACK 22 AUDIO
    TITLE "Bag Pipes"
    PERFORMER "Arto Lindsay"
    INDEX 01 00:00:00
FILE "23 - Drug Finger.wav" WAVE
  TRACK 23 AUDIO
    TITLE "Drug Finger"
    PERFORMER "Arto Lindsay"
    INDEX 01 00:00:00
FILE "24 - Gtr. Drums No.1.wav" WAVE
  TRACK 24 AUDIO
    TITLE "Gtr. Drums No.1"
    PERFORMER "Arto Lindsay"
    INDEX 01 00:00:00
FILE "25 - Head in a Paper Bag.wav" WAVE
  TRACK 25 AUDIO
    TITLE "Head in a Paper Bag"
    PERFORMER "Arto Lindsay"
    INDEX 01 00:00:00
FILE "26 - Very Good.wav" WAVE
  TRACK 26 AUDIO
    TITLE "Very Good"
    PERFORMER "Arto Lindsay"
    INDEX 01 00:00:00
Лог проверки качества
[CUETools log; Date: 24.12.2018 13:06:44; Version: 2.1.6]
Pregap length 00:00:50.
[CTDB TOCID: nE2jo.Zf6JP1CI4yAxP4MnH0x0E-] found.
Track | CTDB Status
  1   | (11/11) Accurately ripped
  2   | (11/11) Accurately ripped
  3   | (11/11) Accurately ripped
  4   | (11/11) Accurately ripped
  5   | (11/11) Accurately ripped
  6   | (11/11) Accurately ripped
  7   | (11/11) Accurately ripped
  8   | (11/11) Accurately ripped
  9   | (11/11) Accurately ripped
 10   | (11/11) Accurately ripped
 11   | (11/11) Accurately ripped
 12   | (11/11) Accurately ripped
 13   | (10/11) Accurately ripped
 14   | (11/11) Accurately ripped
 15   | (11/11) Accurately ripped
 16   | (11/11) Accurately ripped
 17   | (11/11) Accurately ripped
 18   | (11/11) Accurately ripped
 19   | (11/11) Accurately ripped
 20   | (11/11) Accurately ripped
 21   | (11/11) Accurately ripped
 22   | (11/11) Accurately ripped
 23   | (10/11) Accurately ripped
 24   | (11/11) Accurately ripped
 25   | (11/11) Accurately ripped
 26   | (11/11) Accurately ripped
[AccurateRip ID: 002fad1b-036c9331-630b091a] found.
Track   [  CRC   |   V2   ] Status
 01     [7644e96a|1361764c] (03+06/09) Accurately ripped
 02     [f80883b3|39ec00dc] (03+05/08) Accurately ripped
 03     [7fae31b8|450dd850] (03+06/09) Accurately ripped
 04     [5245703b|7eb3ea5c] (03+06/09) Accurately ripped
 05     [abac2588|8caa3533] (03+06/09) Accurately ripped
 06     [4c154832|6b51988d] (03+05/08) Accurately ripped
 07     [a7fe2919|f2cea7c5] (03+07/10) Accurately ripped
 08     [8c55f90e|783d7083] (03+05/08) Accurately ripped
 09     [adcb721f|96618a9a] (03+05/08) Accurately ripped
 10     [c6f441ab|287597f2] (03+06/09) Accurately ripped
 11     [b3c21bda|c8598278] (03+07/10) Accurately ripped
 12     [80e12f4a|20837265] (03+07/10) Accurately ripped
 13     [bea08740|882fa4de] (03+07/10) Accurately ripped
 14     [f0ed5e89|b505cf5c] (03+05/08) Accurately ripped
 15     [12c4f679|9780003c] (02+05/07) Accurately ripped
 16     [2260d98e|04dbc158] (03+06/09) Accurately ripped
 17     [6a9cbec1|9d886277] (03+06/09) Accurately ripped
 18     [a44e21cf|fc3ff326] (03+07/10) Accurately ripped
 19     [f03d8fa8|ded752eb] (03+06/09) Accurately ripped
 20     [8bf5b5a1|0ea52072] (02+06/08) Accurately ripped
 21     [95a6a0e2|104a1337] (03+06/09) Accurately ripped
 22     [19348ee1|5dc616c9] (03+05/08) Accurately ripped
 23     [7a6177f3|c1d27df3] (03+06/09) Accurately ripped
 24     [b2422588|cea4fe3b] (03+06/09) Accurately ripped
 25     [41ad2e39|00f36749] (03+05/08) Accurately ripped
 26     [6266886c|29ca2fca] (03+05/08) Accurately ripped

Track Peak [ CRC32  ] [W/O NULL] [  LOG   ]
 --  100,0 [D5F558A7] [29E5950B]
 01   95,5 [86E31C77] [27E5C695]   CRC32
 02   97,7 [C5E2E59C] [0FDE9964]   CRC32
 03   91,8 [CCBE4734] [2D9C89AF]   CRC32
 04   95,3 [746F8B67] [3F19BB16]   CRC32
 05   97,7 [B3A3A522] [94FD650D]   CRC32
 06   95,5 [0C20E3A4] [73CD6299]   CRC32
 07   44,5 [5F886C2C] [DCBD4750]   CRC32
 08   97,7 [856AE18B] [D9DEF4C3]   CRC32
 09   95,5 [F38B836A] [45CF64CC]   CRC32
 10   97,7 [FDD9F8D4] [941FB1C1]   CRC32
 11   97,7 [87E8A6A7] [EA366232]   CRC32
 12   97,7 [ABFCEF19] [F213359A]   CRC32
 13   97,7 [48FE34B9] [159CC11E]   CRC32
 14   96,3 [96A35CE6] [4FD2812E]   CRC32
 15  100,0 [35CAF2CE] [C78B296F]   CRC32
 16   98,7 [21F25A31] [085BEF03]   CRC32
 17   90,1 [B9541991] [1BBF5A4F]   CRC32
 18   97,7 [DE66526D] [C357C1A7]   CRC32
 19   98,5 [4427241E] [4F786073]   CRC32
 20   96,0 [E72A7F2D] [0A7DFE4F]   CRC32
 21   95,5 [EF1C3ACC] [F55C5E13]   CRC32
 22   95,6 [DCAE0D97] [9CD811E9]   CRC32
 23   97,3 [A07450F1] [9F88E9D3]   CRC32
 24   48,1 [637373BD] [FA942CDE]   CRC32
 25   97,7 [95ED25AC] [584BEEAC]   CRC32
 26   35,5 [FDF2AC5F] [562476A3]   CRC32
No seeders - write personal message to M0p94ok. Any questions - support@pro-jazz.com.
Нет сидеров - пишите в личку M0p94ok. Есть вопросы - support@pro-jazz.com
09:55
162
Нет комментариев. Ваш будет первым!