Поиск

1994 Spirits Trio - Jazz (2017) {Venus VHGD-228} [DSD64 ISO]

1994 Spirits Trio - Jazz (2017) {Venus VHGD-228} [DSD64 ISO]
Стили:
Дата записи диска:
8 июля 1994
Место записи:
Tokyo, Japan
Дата издания диска:
25 августа 1994
Дата переиздания диска:
21 июня 2017
Издатель (лейбл):
Номер по каталогу:
VHGD-228
Носитель:
SACD
Формат:
DSD
Тип рипа:
image
Контейнер:
ISO (*.iso)
Количество каналов:
2.0
Разрядность/ЧД:
64 (2,8 MHz/1 Bit)
Битрейт аудио:
lossless
Время звучания:
00:53:42
Наличие сканов:
да

1. Where are You  08:47
2. Blame It on My Youth  05:10
3. Waltz Step  07:01
4. Can't Help Lovin' Dat Man  07:58
5. Don't Take Your Love from Me  06:40
6. The Things We did Last Summer  07:08
7. Desert Wind  06:49
8. A Lovely Way to Spend on Evening  04:41

Состав:
  • Bass – Ikuo Sakurai
  • Drums – Masahiko Togashi
  • Engineer – Hiroshi Sato (10)
  • Mastered By – Shuji Kitamura, Tetsuo Hara
  • Mixed By – Hiroshi Sato (10), Shuji Kitamura, Tetsuo Hara
  • Piano – Hideo Ichikawa
  • Producer – Tetsuo Hara
Лог проверки качества
foobar2000 1.6.4 / Dynamic Range Meter 1.1.1
log date: 2021-07-08 22:32:44

--------------------------------------------------------------------------------
Analyzed: SPIRITS TRIO / Jazz
--------------------------------------------------------------------------------

DR         Peak         RMS     Duration Track
--------------------------------------------------------------------------------
DR10      -3.97 dB   -16.20 dB      8:42 01-Where Are You
DR10      -4.28 dB   -16.57 dB      5:05 02-Blame It On My Youth
DR10      -3.87 dB   -16.13 dB      6:56 03-Waltz Step
DR12      -4.71 dB   -18.96 dB      7:53 04-Can't Help Lovin' Dat Man
DR10      -4.00 dB   -16.54 dB      6:35 05-Don't Take Your Love From Me
DR10      -4.28 dB   -17.05 dB      7:03 06-The Things We Did Last Summer
DR9       -3.89 dB   -14.52 dB      6:44 07-Desert Wind
DR11      -4.24 dB   -18.29 dB      4:41 08-A Lovely Way To Spend An Evening
--------------------------------------------------------------------------------

Number of tracks:  8
Official DR value: DR10

Samplerate:        2822400 Hz / PCM Samplerate: 88200 Hz
Channels:          2
Bits per sample:   1
Bitrate:           5645 kbps
Codec:             DSD64
================================================================================
Приватный:
Нет (DHT включён)
Размер:
2.19 Гб (2,348,184,569 байт) » файлов: 5
Участники:
18 раздают, 2 качают (20 участников всего)
Внешние участники:
8 раздают, 2 качают (10 участников всего) [ Обновить ]
22:23
624
Нет комментариев. Ваш будет первым!