Поиск

1994 Paul Bley Trio - Modern Chant: Inspiration from Gregorian Chant (2018) {Venus} [DSD64 ISO]

1994 Paul Bley Trio - Modern Chant: Inspiration from Gregorian Chant (2018) {Venus} [DSD64 ISO]
Дата записи диска:
17 сентября 1994
Место записи:
The Studio, New York City, NY, USA; Masuo Studio, NY
Дата издания диска:
25 ноября 1994
Дата переиздания диска:
17 августа 2018
Издатель (лейбл):
Номер по каталогу:
VHGD-314
Носитель:
SACD
Формат:
DSD
Тип рипа:
image
Контейнер:
ISO (*.iso)
Количество каналов:
2.0
Разрядность/ЧД:
64 (2,8 MHz/1 Bit)
Битрейт аудио:
lossless
Время звучания:
00:52:10
Наличие сканов:
только обложка

01. The New You  04:02
02. Sweet Talk  04:31
03. Funhouse  05:37
04. Please Don't  05:56
05. Wisecracks  05:42
06. Spot  03:48
07. Russel  07:33
08. Digitant  04:45
09. Decompose  05:07
10. Loose Change  05:04

Состав:
  • Engineer [Engineered By], Mixed By – David Baker
  • Executive-Producer – Tetsuo Hara
  • Drums – Bruce Ditmas
  • Electric Cello – David Eyges
  • Piano – Paul Bley
  • Producer [Assistant Producer] – David Eyges
  • Producer [Produced By] – Todd Barkan
Лог проверки качества
foobar2000 1.6.8 / Dynamic Range Meter 1.1.1
log date: 2022-01-11 09:48:38
--------------------------------------------------------------------------------
Analyzed: PAUL BLEY TRIO / Modern Chant
--------------------------------------------------------------------------------
DR         Peak         RMS     Duration Track
--------------------------------------------------------------------------------
DR8       -4.36 dB   -14.37 dB      4:03 01-The New You
DR8       -4.81 dB   -15.44 dB      4:32 02-Sweet Talk
DR7       -4.73 dB   -13.15 dB      5:38 03-Funhouse
DR8       -4.86 dB   -15.27 dB      5:57 04-Please Don't
DR8       -4.57 dB   -14.16 dB      5:42 05-Wisecracks
DR8       -5.87 dB   -16.52 dB      3:49 06-Spot
DR8       -4.50 dB   -14.01 dB      7:34 07-Russell
DR7       -4.69 dB   -14.51 dB      4:45 08-Digitant
DR7       -4.93 dB   -12.97 dB      5:07 09-Decompose
DR7       -4.52 dB   -13.67 dB      5:05 10-Loose Change
--------------------------------------------------------------------------------
Number of tracks:  10
Official DR value: DR7
Samplerate:        2822400 Hz / PCM Samplerate: 88200 Hz
Channels:          2
Bits per sample:   1
Bitrate:           5645 kbps
Codec:             DSD64
================================================================================
Приватный:
Нет (DHT включён)
Размер:
2.10 Гб (2,258,360,095 байт) » файлов: 5
Участники:
0 раздают, 0 качают (0 участников всего)
Внешние участники:
12 раздают, 4 качают (16 участников всего) [ Обновить ]
22:44
522
Нет комментариев. Ваш будет первым!