Поиск

1994 Kenny Werner - Live at Maybeck Recital Hall, Vol. 34 {Concord Jazz} [CD]

1994 Kenny Werner - Live at Maybeck Recital Hall, Vol. 34 {Concord Jazz} [CD]
Стили:
Дата записи диска:
27 февраля 1994
Место записи:
Maybeck Recital Hall, Berkeley, CA, USA
Издатель (лейбл):
Номер по каталогу:
CCD-4622
Носитель:
CD
Тип рипа:
tracks+.cue
Аудиокодек:
FLAC (*.flac)
Битрейт аудио:
lossless
Время звучания:
00:56:49
Наличие сканов:
да

1. Roberta Moon  13:09
2. Someday My Prince Will Come  08:38
3. In Your Own Sweet Way / Naima  12:10
4. Autumn Leaves  07:41
5. Try To Remember / St. Thomas  04:46
6. Guru  06:43
7. A Child Is Born  05:45

Состав:
  • Elizabeth Bell    Production Coordination
  • Barbara Fisher    Engineer
  • George Horn    Mastering
  • Carl Jefferson    Executive Producer
  • Larry Kelp    Liner Notes
  • David Luke    Engineer
  • Nick Phillips    Producer
  • Bud Spangler    Coordination, Engineer
  • Kenny Werner    Composer, Piano
Лог создания рипа
EAC extraction logfile from 4. March 2007, 4:11 for CD
Kenny Werner / Live at Maybeck Recital Hall, Volume 34
Used drive  : TEAC    DVD+RW DV-W58E   Adapter: 1  ID: 0
Read mode   : Secure with C2, accurate stream, disable cache
Read offset correction : 686
Overread into Lead-In and Lead-Out : No
Used output format : Internal WAV Routines
                     44.100 Hz; 16 Bit; Stereo
Other options      : 
    Fill up missing offset samples with silence : Yes
    Delete leading and trailing silent blocks : No
    Installed external ASPI interface
Track  1
     Filename H:\EAC_rips\Jazz\Werner - Live At Maybeck Recital Hall\(01) Roberta Moon.wav
     Pre-gap length  0:00:02.00
     Peak level 73.4 %
     Track quality 100.0 %
     Test CRC 1C84CE10
     Copy CRC 1C84CE10
     Copy OK
Track  2
     Filename H:\EAC_rips\Jazz\Werner - Live At Maybeck Recital Hall\(02) Someday My Prince Will Come.wav
     Peak level 99.1 %
     Track quality 100.0 %
     Test CRC FCB8D7DB
     Copy CRC FCB8D7DB
     Copy OK
Track  3
     Filename H:\EAC_rips\Jazz\Werner - Live At Maybeck Recital Hall\(03) In Your Own Sweet Way , Naima.wav
     Peak level 80.0 %
     Track quality 100.0 %
     Test CRC A9D6E240
     Copy CRC A9D6E240
     Copy OK
Track  4
     Filename H:\EAC_rips\Jazz\Werner - Live At Maybeck Recital Hall\(04) Autumn Leaves.wav
     Peak level 98.2 %
     Track quality 100.0 %
     Test CRC 5372FA19
     Copy CRC 5372FA19
     Copy OK
Track  5
     Filename H:\EAC_rips\Jazz\Werner - Live At Maybeck Recital Hall\(05) Try to Remember , St. Thomas.wav
     Peak level 87.2 %
     Track quality 100.0 %
     Test CRC 4D826A30
     Copy CRC 4D826A30
     Copy OK
Track  6
     Filename H:\EAC_rips\Jazz\Werner - Live At Maybeck Recital Hall\(06) Guru.wav
     Peak level 98.2 %
     Track quality 100.0 %
     Test CRC 8405B057
     Copy CRC 8405B057
     Copy OK
Track  7
     Filename H:\EAC_rips\Jazz\Werner - Live At Maybeck Recital Hall\(07) A Child is Born.wav
     Peak level 79.5 %
     Track quality 100.0 %
     Test CRC C159A2D1
     Copy CRC C159A2D1
     Copy OK
No errors occured
End of status report
Приватный:
Да (DHT отключён)
Размер:
224.64 Мб (235,553,128 байт) » файлов: 18
Участники:
8 раздают, 0 качают (8 участников всего)
Внешние участники:
--- [ Обновить ]
23:35
689
Нет комментариев. Ваш будет первым!