Вы используете незарегистрированную версию компонента "Вкладки"!

Поиск

1994 Kari Bremnes - Gåte Ved Gåte (2017) {Kirkelig Kulturverksted, Master Music} [DST64]

1994 Kari Bremnes - Gåte Ved Gåte (2017) {Kirkelig Kulturverksted, Master Music} [DST64]
Битрейт аудио:
lossless
Доп. инфо:

Формат записи/Источник записи: [SACD-R][OF]
Наличие водяных знаков: Нет
Год издания/переиздания диска: 1994 / 2017
Жанр: Pop, Rock, Jazz
Издатель (лейбл): Kirkelig Kulturverksted / Master Music Ltd.
Продолжительность: 41:17
Наличие сканов в содержимом раздачи: Да (сканы)

Контейнер: ISO (*.iso)
Тип рипа: image
Разрядность: 64(2,8 MHz/1 Bit)
Формат: DST64
Количество каналов: 2.0

Источник (релизер): https://elusivedisc.com/kari-bremnes-gate-ved-gate-hybrid-stereo-sacd/

Лог проверки качества
============================================================
foobar2000 1.4 / Dynamic Range Meter 1.1.1
log date: 2020-06-09 18:38:42
-----------------------------------------------------------
Analyzed: lazy TOC creation by this SACD's author
-----------------------------------------------------------
DR      Peak        RMS     Duration     Track
-----------------------------------------------------------
DR12  -6.45 dB   -21.18 dB   3:57   01-Unknown Album
DR13  -5.96 dB   -20.26 dB   3:09   02-Unknown Album
DR12  -5.83 dB   -21.17 dB   5:34   03-Unknown Album
DR14  -5.62 dB   -22.47 dB   3:31   04-Unknown Album
DR14  -5.54 dB   -21.25 dB   4:59   05-Unknown Album
DR13  -5.85 dB   -21.26 dB   3:06   06-Unknown Album
DR14  -6.17 dB   -24.25 dB   3:51   07-Unknown Album
DR14  -5.78 dB   -23.05 dB   4:20   08-Unknown Album
DR14  -6.21 dB   -22.03 dB   3:33   09-Unknown Album
DR13  -6.08 dB   -23.26 dB   5:17   10-Unknown Album
------------------------------------------------------------
Number of tracks: 10
Official DR value: DR13

Samplerate: 2822400 Hz / PCM Samplerate: 176400 Hz
Channels: 2
Bits per sample: 1
Bitrate: 5645 kbps
Codec: DST64
============================================================
Any questions - support@pro-jazz.com. Есть вопросы - support@pro-jazz.com
22:59
263
Нет комментариев. Ваш будет первым!