Поиск

1994 Joe McBride - A Gift For Tomorrow {Heads Up HUCD 3025} [CD]

1994 Joe McBride - A Gift For Tomorrow {Heads Up HUCD 3025} [CD]
Издатель (лейбл):
Номер по каталогу:
HUCD 3025
Носитель:
CD
Тип рипа:
image+.cue
Аудиокодек:
FLAC (*.flac)
Битрейт аудио:
lossless
Время звучания:
00:50:48
Наличие сканов:
да
Страна-производитель диска (релиза):
USA
Релизёр (источник):
PCWhizzkid
Лог создания рипа
Exact Audio Copy V1.0 beta 1 from 15. November 2010

EAC extraction logfile from 14. June 2011, 16:28

Joe McBride / A Gift For Tomorrow

Used drive  : HL-DT-STDVDRAM GH22NS40   Adapter: 5  ID: 0

Read mode               : Secure
Utilize accurate stream : Yes
Defeat audio cache      : Yes
Make use of C2 pointers : No

Read offset correction                      : 667
Overread into Lead-In and Lead-Out          : No
Fill up missing offset samples with silence : Yes
Delete leading and trailing silent blocks   : No
Null samples used in CRC calculations       : Yes
Used interface                              : Native Win32 interface for Win NT & 2000

Used output format              : User Defined Encoder
Selected bitrate                : 1024 kBit/s
Quality                         : High
Add ID3 tag                     : No
Command line compressor         : C:\Program Files (x86)\Exact Audio Copy\FLAC\FLAC.EXE
Additional command line options : -6 -V -T "ARTIST=%a" -T "TITLE=%t" -T "ALBUM=%g" -T "DATE=%y" -T "TRACKNUMBER=%n" -T "GENRE=%m" -T "COMMENT=%e" %j--picture="%i"%j %s -o %d


TOC of the extracted CD

     Track |   Start  |  Length  | Start sector | End sector 
    ---------------------------------------------------------
        1  |  0:00.00 |  5:03.35 |         0    |    22759   
        2  |  5:03.35 |  5:11.40 |     22760    |    46124   
        3  | 10:15.00 |  3:57.00 |     46125    |    63899   
        4  | 14:12.00 |  5:09.37 |     63900    |    87111   
        5  | 19:21.37 |  5:00.38 |     87112    |   109649   
        6  | 24:22.00 |  4:54.00 |    109650    |   131699   
        7  | 29:16.00 |  4:44.00 |    131700    |   152999   
        8  | 34:00.00 |  3:47.37 |    153000    |   170061   
        9  | 37:47.37 |  3:42.35 |    170062    |   186746   
       10  | 41:29.72 |  4:49.03 |    186747    |   208424   
       11  | 46:19.00 |  4:28.67 |    208425    |   228591   


Range status and errors

Selected range

     Filename T:\Joe McBride - A Gift For Tomorrow.wav

     Peak level 100.0 %
     Extraction speed 0.1 X
     Range quality 99.9 %
     Copy CRC 8728CDD0
     Copy OK

No errors occurred

 
AccurateRip summary
 
Track  1  accurately ripped (confidence 3)  [5DA92D9F]
Track  2  accurately ripped (confidence 3)  [1A54BF7D]
Track  3  cannot be verified as accurate (confidence 3)  [25200E1F], AccurateRip returned [51F4DDC4]
Track  4  accurately ripped (confidence 3)  [99DEE473]
Track  5  accurately ripped (confidence 3)  [AF99F540]
Track  6  accurately ripped (confidence 3)  [FA02C737]
Track  7  accurately ripped (confidence 3)  [2893A66A]
Track  8  accurately ripped (confidence 3)  [686B9ABC]
Track  9  accurately ripped (confidence 3)  [1B528B48]
Track 10  accurately ripped (confidence 3)  [80824536]
Track 11  accurately ripped (confidence 3)  [952D56EF]
 
10 track(s) accurately ripped
 1 track(s) could not be verified as accurate

Some tracks could not be verified as accurate

End of status report

==== Log checksum 8131A7AC57C47ED58BF0B677DE8609F690994EF23582987C64AEE0AED1113F25 ====
Содержание индексной карты (.CUE)
REM GENRE Jazz
REM DATE 1994
REM DISCID 950BE70B
REM COMMENT "ExactAudioCopy v1.0b1"
PERFORMER "Joe McBride"
TITLE "A Gift For Tomorrow"
FILE "Joe McBride - A Gift For Tomorrow.flac" WAVE
  TRACK 01 AUDIO
    TITLE "An Evening In Dallas"
    PERFORMER "Joe McBride"
    INDEX 01 00:00:00
  TRACK 02 AUDIO
    TITLE "Secrets"
    PERFORMER "Joe McBride"
    INDEX 00 05:01:15
    INDEX 01 05:03:35
  TRACK 03 AUDIO
    TITLE "Never Be Lonely"
    PERFORMER "Joe McBride"
    INDEX 00 10:12:60
    INDEX 01 10:15:00
  TRACK 04 AUDIO
    TITLE "Walking In Rhythm"
    PERFORMER "Joe McBride"
    INDEX 00 14:09:65
    INDEX 01 14:12:00
  TRACK 05 AUDIO
    TITLE "A Gift For Tomorrow"
    PERFORMER "Joe McBride"
    INDEX 00 19:19:27
    INDEX 01 19:21:37
  TRACK 06 AUDIO
    TITLE "Messenger"
    PERFORMER "Joe McBride"
    INDEX 00 24:19:70
    INDEX 01 24:22:00
  TRACK 07 AUDIO
    TITLE "Dejа Vu"
    PERFORMER "Joe McBride"
    INDEX 00 29:14:00
    INDEX 01 29:16:00
  TRACK 08 AUDIO
    TITLE "World To Me"
    PERFORMER "Joe McBride"
    INDEX 00 33:58:30
    INDEX 01 34:00:00
  TRACK 09 AUDIO
    TITLE "Everybody Needs Love"
    PERFORMER "Joe McBride"
    INDEX 00 37:45:35
    INDEX 01 37:47:37
  TRACK 10 AUDIO
    TITLE "Reunion"
    PERFORMER "Joe McBride"
    INDEX 00 41:28:45
    INDEX 01 41:29:72
  TRACK 11 AUDIO
    TITLE "You've Got A Friend"
    PERFORMER "Joe McBride"
    INDEX 00 46:17:10
    INDEX 01 46:19:00
No seeders - write personal message to M0p94ok. Any questions - support@pro-jazz.com.
Нет сидеров - пишите в личку M0p94ok. Есть вопросы - support@pro-jazz.com
23:48
70
23:52