Поиск

1994 Django Reinhardt - 1937 {The Chronological Classics 748} [CD]

1994 Django Reinhardt - 1937 {The Chronological Classics 748} [CD]
Издатель (лейбл):
Номер по каталогу:
748
Треклист:

01. Exactly Like You (2:27)
02. Charleston (2:50)
03. You're Driving Me Crazy (2:51)
04. Tears (2:35)
05. Solitude (3:06)
06. Hot Lips (3:01)
07. Ain't Misbehavin' (2:50)
08. Rose Room (2:42)
09. Body and Soul (3:23)
10. When Day Is Done (3:08)
11. Runnin' Wild (2:52)
12. Chicago (3:22)
13. Liebestraum No.3 (3:16)
14. Miss Annabelle Lee (2:45)
15. A Little Love, A Little Kiss (3:15)
16. Mystery Pacific (2:17)
17. In a Sentimental Mood (2:57)
18. The Sheik of Araby (3:01)
19. Improvisation (2:53)
20. Parfum (2:56)
21. Pennies from Heaven (2:19)
22. Tiger Rag (2:34)

Благодарности уходят Mazeppa (hqshare).

Доп. инфо:

Год выпуска: 1994
Формат: FLAC (image + .cue)
Битрейт аудио: lossless
Продолжительность: 64:59

Лог создания рипа
Exact Audio Copy V0.99 prebeta 3 from 28. July 2007
EAC extraction logfile from 10. January 2008, 14:12
Django Reinhardt / 1937
Used drive  : LITE-ON CD-ROM LTN-527T   Adapter: 1  ID: 1
Read mode               : Secure
Utilize accurate stream : Yes
Defeat audio cache      : Yes
Make use of C2 pointers : No
Read offset correction                      : 12
Overread into Lead-In and Lead-Out          : Yes
Fill up missing offset samples with silence : Yes
Delete leading and trailing silent blocks   : No
Null samples used in CRC calculations       : Yes
Used interface                              : Installed external ASPI interface
Used output format              : User Defined Encoder
Selected bitrate                : 320 kBit/s
Quality                         : High
Add ID3 tag                     : No
Command line compressor         : C:\Program Files\FLAC\flac.exe
Additional command line options :  -V -8 -T "artist=%a" -T "title=%t" -T "album=%g" -T "date=%y" -T "tracknumber=%n" -T "genre=%m" %s
TOC of the extracted CD
     Track |   Start  |  Length  | Start sector | End sector
    ---------------------------------------------------------
        1  |  0:00.33 |  2:32.30 |        33    |    11462
        2  |  2:32.63 |  2:54.27 |     11463    |    24539
        3  |  5:27.15 |  2:56.05 |     24540    |    37744
        4  |  8:23.20 |  2:39.35 |     37745    |    49704
        5  | 11:02.55 |  3:09.65 |     49705    |    63944
        6  | 14:12.45 |  3:05.33 |     63945    |    77852
        7  | 17:18.03 |  2:54.62 |     77853    |    90964
        8  | 20:12.65 |  2:46.20 |     90965    |   103434
        9  | 22:59.10 |  3:27.48 |    103435    |   119007
       10  | 26:26.58 |  3:13.52 |    119008    |   133534
       11  | 29:40.35 |  2:55.38 |    133535    |   146697
       12  | 32:35.73 |  3:26.50 |    146698    |   162197
       13  | 36:02.48 |  3:20.55 |    162198    |   177252
       14  | 39:23.28 |  2:50.27 |    177253    |   190029
       15  | 42:13.55 |  3:20.00 |    190030    |   205029
       16  | 45:33.55 |  2:21.30 |    205030    |   215634
       17  | 47:55.10 |  3:01.48 |    215635    |   229257
       18  | 50:56.58 |  3:06.12 |    229258    |   243219
       19  | 54:02.70 |  2:57.40 |    243220    |   256534
       20  | 57:00.35 |  3:00.38 |    256535    |   270072
       21  | 60:00.73 |  2:23.47 |    270073    |   280844
       22  | 62:24.45 |  2:34.63 |    280845    |   292457
Range status and errors
Selected range
     Filename F:\Win-Rar\Django Reinhardt - 1937 (Chronogical Classics)[FLAC Full Scans]\Django Reinhardt - 1937.wav
     Peak level 97.1 %
     Range quality 99.9 %
     Test CRC FB539C7B
     Copy CRC FB539C7B
     Copy OK
No errors occurred
End of status report
Download available for power users only.
To become a power user - read FAQ.
08:16
647
Нет комментариев. Ваш будет первым!