Поиск

1993 Paul Hardcastle - The Definitive Paul Hardcastle {Connoisseur VSOP CD 186} [CD]

1993 Paul Hardcastle - The Definitive Paul Hardcastle {Connoisseur VSOP CD 186} [CD]
Стили:
Страна-производитель диска (релиза):
UK
Дата издания диска:
1993
Номер по каталогу:
Connoisseur VSOP CD 186
Носитель:
CD
Аудиокодек:
FLAC (*.flac)
Тип рипа:
tracks+.cue
Битрейт аудио:
lossless
Время звучания:
01:12:01
Наличие сканов:
да
Релизёр (источник):
djrichiep
Треклист:

1. You're The One For Me / A. M. / Daybreak (06:32)
2. Guilty (06:30)
3. King Tut (03:59)
4. Soundchaser (03:08)
5. Rainforest (04:22)
6. Eat Your Heart Out (05:53)
7. 19 (05:15)
8. Don't Waste My Time (05:37)
9. Foolin' Yourself (06:24)
10. The Wizard (04:48)
11. Walk In The Night (05:10)
12. 40 Years (05:01)
13. Dark Star (04:24)
14. Rainforest '90 (04:58)

Лог создания рипа
Exact Audio Copy V1.3 from 2. September 2016

EAC extraction logfile from 2. February 2019, 13:51

Paul Hardcastle / The Definitive Paul Hardcastle

Used drive  : PLEXTOR PX-891SAF   Adapter: 1  ID: 3

Read mode               : Secure
Utilize accurate stream : Yes
Defeat audio cache      : Yes
Make use of C2 pointers : No

Read offset correction                      : 6
Overread into Lead-In and Lead-Out          : No
Fill up missing offset samples with silence : Yes
Delete leading and trailing silent blocks   : No
Null samples used in CRC calculations       : Yes
Used interface                              : Native Win32 interface for Win NT & 2000
Gap handling                                : Appended to previous track

Used output format              : User Defined Encoder
Selected bitrate                : 1024 kBit/s
Quality                         : High
Add ID3 tag                     : No
Command line compressor         : C:\Program Files\Exact Audio Copy\Flac\flac.exe
Additional command line options : -8 -V -T "ARTIST=%artist%" -T "TITLE=%title%" -T "ALBUM=%albumtitle%" -T "DATE=%year%" -T "TRACKNUMBER=%tracknr%" -T "GENRE=%genre%" -T "PERFORMER=%albuminterpret%" -T "COMPOSER=%composer%" %haslyrics%--tag-from-file=LYRICS="%lyricsfile%"%haslyrics% -T "ALBUMARTIST=%albumartist%" -T "DISCNUMBER=%cdnumber%" -T "TOTALDISCS=%totalcds%" -T "TOTALTRACKS=%numtracks%" -T "COMMENT=%comment%" %source% -o %dest%


TOC of the extracted CD

     Track |   Start  |  Length  | Start sector | End sector 
    ---------------------------------------------------------
        1  |  0:00.33 |  6:32.10 |        33    |    29442   
        2  |  6:32.43 |  6:30.10 |     29443    |    58702   
        3  | 13:02.53 |  3:59.40 |     58703    |    76667   
        4  | 17:02.18 |  3:08.62 |     76668    |    90829   
        5  | 20:11.05 |  4:22.68 |     90830    |   110547   
        6  | 24:33.73 |  5:53.10 |    110548    |   137032   
        7  | 30:27.08 |  5:15.72 |    137033    |   160729   
        8  | 35:43.05 |  5:37.30 |    160730    |   186034   
        9  | 41:20.35 |  6:24.40 |    186035    |   214874   
       10  | 47:45.00 |  4:48.30 |    214875    |   236504   
       11  | 52:33.30 |  5:10.70 |    236505    |   259824   
       12  | 57:44.25 |  5:01.30 |    259825    |   282429   
       13  | 62:45.55 |  4:24.38 |    282430    |   302267   
       14  | 67:10.18 |  4:58.15 |    302268    |   324632   


Track  1

     Filename J:\(ripper)\Paul Hardcastle - The Definitive Paul Hardcastle [1993] [FLAC] {VSOP CD 186}\01 - You're The One For Me,A.M.,Daybreak.wav

     Pre-gap length  0:00:02.44

     Peak level 100.0 %
     Extraction speed 6.1 X
     Track quality 100.0 %
     Test CRC 76BAC5FE
     Copy CRC 76BAC5FE
     Accurately ripped (confidence 15)  [3FF8B1A2]  (AR v2)
     Copy OK

Track  2

     Filename J:\(ripper)\Paul Hardcastle - The Definitive Paul Hardcastle [1993] [FLAC] {VSOP CD 186}\02 - Guilty.wav

     Pre-gap length  0:00:02.00

     Peak level 97.9 %
     Extraction speed 6.9 X
     Track quality 100.0 %
     Test CRC AB05ADBB
     Copy CRC AB05ADBB
     Accurately ripped (confidence 15)  [1E692933]  (AR v2)
     Copy OK

Track  3

     Filename J:\(ripper)\Paul Hardcastle - The Definitive Paul Hardcastle [1993] [FLAC] {VSOP CD 186}\03 - King Tut.wav

     Pre-gap length  0:00:02.00

     Peak level 100.0 %
     Extraction speed 7.1 X
     Track quality 100.0 %
     Test CRC 1C75EEF4
     Copy CRC 1C75EEF4
     Accurately ripped (confidence 16)  [AEB37875]  (AR v2)
     Copy OK

Track  4

     Filename J:\(ripper)\Paul Hardcastle - The Definitive Paul Hardcastle [1993] [FLAC] {VSOP CD 186}\04 - Soundchaser.wav

     Pre-gap length  0:00:02.00

     Peak level 99.0 %
     Extraction speed 7.2 X
     Track quality 100.0 %
     Test CRC 912DBAE6
     Copy CRC 912DBAE6
     Accurately ripped (confidence 15)  [4DB0BA5B]  (AR v2)
     Copy OK

Track  5

     Filename J:\(ripper)\Paul Hardcastle - The Definitive Paul Hardcastle [1993] [FLAC] {VSOP CD 186}\05 - Rainforest.wav

     Pre-gap length  0:00:02.00

     Peak level 97.1 %
     Extraction speed 6.7 X
     Track quality 99.9 %
     Test CRC 62CA93E7
     Copy CRC 62CA93E7
     Accurately ripped (confidence 16)  [116C7123]  (AR v2)
     Copy OK

Track  6

     Filename J:\(ripper)\Paul Hardcastle - The Definitive Paul Hardcastle [1993] [FLAC] {VSOP CD 186}\06 - Eat Your Heart Out.wav

     Pre-gap length  0:00:02.00

     Peak level 97.8 %
     Extraction speed 8.7 X
     Track quality 100.0 %
     Test CRC BAC6D52E
     Copy CRC BAC6D52E
     Accurately ripped (confidence 15)  [C23524CB]  (AR v2)
     Copy OK

Track  7

     Filename J:\(ripper)\Paul Hardcastle - The Definitive Paul Hardcastle [1993] [FLAC] {VSOP CD 186}\07 - 19.wav

     Pre-gap length  0:00:02.00

     Peak level 98.2 %
     Extraction speed 9.1 X
     Track quality 100.0 %
     Test CRC E1499749
     Copy CRC E1499749
     Accurately ripped (confidence 16)  [4B55CF05]  (AR v2)
     Copy OK

Track  8

     Filename J:\(ripper)\Paul Hardcastle - The Definitive Paul Hardcastle [1993] [FLAC] {VSOP CD 186}\08 - Don't Waste My Time.wav

     Pre-gap length  0:00:02.00

     Peak level 100.0 %
     Extraction speed 9.6 X
     Track quality 100.0 %
     Test CRC 8ABB1A4E
     Copy CRC 8ABB1A4E
     Accurately ripped (confidence 16)  [C61E7740]  (AR v2)
     Copy OK

Track  9

     Filename J:\(ripper)\Paul Hardcastle - The Definitive Paul Hardcastle [1993] [FLAC] {VSOP CD 186}\09 - Foolin' Yourself.wav

     Pre-gap length  0:00:02.00

     Peak level 100.0 %
     Extraction speed 10.1 X
     Track quality 100.0 %
     Test CRC 8A0706D0
     Copy CRC 8A0706D0
     Accurately ripped (confidence 15)  [3EF16CE3]  (AR v2)
     Copy OK

Track 10

     Filename J:\(ripper)\Paul Hardcastle - The Definitive Paul Hardcastle [1993] [FLAC] {VSOP CD 186}\10 - The Wizard.wav

     Pre-gap length  0:00:02.00

     Peak level 97.5 %
     Extraction speed 10.2 X
     Track quality 100.0 %
     Test CRC BDBEA59D
     Copy CRC BDBEA59D
     Accurately ripped (confidence 15)  [EBBC2B84]  (AR v2)
     Copy OK

Track 11

     Filename J:\(ripper)\Paul Hardcastle - The Definitive Paul Hardcastle [1993] [FLAC] {VSOP CD 186}\11 - Walk In The Night.wav

     Pre-gap length  0:00:02.00

     Peak level 100.0 %
     Extraction speed 10.7 X
     Track quality 100.0 %
     Test CRC 9D429184
     Copy CRC 9D429184
     Accurately ripped (confidence 16)  [A7CA635E]  (AR v2)
     Copy OK

Track 12

     Filename J:\(ripper)\Paul Hardcastle - The Definitive Paul Hardcastle [1993] [FLAC] {VSOP CD 186}\12 - 40 Years.wav

     Pre-gap length  0:00:02.00

     Peak level 99.6 %
     Extraction speed 10.9 X
     Track quality 100.0 %
     Test CRC 804CAA40
     Copy CRC 804CAA40
     Accurately ripped (confidence 14)  [9B7FC444]  (AR v2)
     Copy OK

Track 13

     Filename J:\(ripper)\Paul Hardcastle - The Definitive Paul Hardcastle [1993] [FLAC] {VSOP CD 186}\13 - Dark Star.wav

     Pre-gap length  0:00:02.00

     Peak level 99.9 %
     Extraction speed 11.1 X
     Track quality 100.0 %
     Test CRC 5BA307B3
     Copy CRC 5BA307B3
     Accurately ripped (confidence 14)  [1E629AAC]  (AR v2)
     Copy OK

Track 14

     Filename J:\(ripper)\Paul Hardcastle - The Definitive Paul Hardcastle [1993] [FLAC] {VSOP CD 186}\14 - Rainforest '93.wav

     Pre-gap length  0:00:02.00

     Peak level 100.0 %
     Extraction speed 11.5 X
     Track quality 100.0 %
     Test CRC 8433A07E
     Copy CRC 8433A07E
     Accurately ripped (confidence 14)  [7E7C6E2B]  (AR v2)
     Copy OK


All tracks accurately ripped

No errors occurred

End of status report

---- CUETools DB Plugin V2.1.6

[CTDB TOCID: GqRpVJKDCs2cv3MPppghhK0G8Zs-] found
Submit result: GqRpVJKDCs2cv3MPppghhK0G8Zs- has been confirmed
Track | CTDB Status
  1   | (36/36) Accurately ripped
  2   | (36/36) Accurately ripped
  3   | (36/36) Accurately ripped
  4   | (36/36) Accurately ripped
  5   | (34/36) Accurately ripped
  6   | (36/36) Accurately ripped
  7   | (36/36) Accurately ripped
  8   | (36/36) Accurately ripped
  9   | (36/36) Accurately ripped
 10   | (36/36) Accurately ripped
 11   | (36/36) Accurately ripped
 12   | (34/36) Accurately ripped
 13   | (32/36) Accurately ripped
 14   | (32/36) Accurately ripped


==== Log checksum E2A2A177B80069E7B86FC21ED59C4C9E4EAEA22183860C3DC06EFE77841D12FD ====
Содержание индексной карты (.CUE)
REM GENRE Electronic
REM DATE 1993
REM DISCID CC10E80E
REM COMMENT "ExactAudioCopy v1.3"
PERFORMER "Paul Hardcastle"
TITLE "The Definitive Paul Hardcastle"
REM COMPOSER ""
FILE "Paul Hardcastle - The Definitive Paul Hardcastle [1993] [FLAC] {VSOP CD 186}\01 - You're The One For Me,A.M.,Daybreak.wav" WAVE
  TRACK 01 AUDIO
    TITLE "You're The One For Me/A.M./Daybreak"
    PERFORMER "Paul Hardcastle"
    REM COMPOSER ""
    PREGAP 00:00:33
    INDEX 01 00:00:00
  TRACK 02 AUDIO
    TITLE "Guilty"
    PERFORMER "Paul Hardcastle"
    REM COMPOSER ""
    INDEX 00 06:30:10
FILE "Paul Hardcastle - The Definitive Paul Hardcastle [1993] [FLAC] {VSOP CD 186}\02 - Guilty.wav" WAVE
    INDEX 01 00:00:00
  TRACK 03 AUDIO
    TITLE "King Tut"
    PERFORMER "Paul Hardcastle"
    REM COMPOSER ""
    INDEX 00 06:28:10
FILE "Paul Hardcastle - The Definitive Paul Hardcastle [1993] [FLAC] {VSOP CD 186}\03 - King Tut.wav" WAVE
    INDEX 01 00:00:00
  TRACK 04 AUDIO
    TITLE "Soundchaser"
    PERFORMER "Paul Hardcastle"
    REM COMPOSER ""
    INDEX 00 03:57:40
FILE "Paul Hardcastle - The Definitive Paul Hardcastle [1993] [FLAC] {VSOP CD 186}\04 - Soundchaser.wav" WAVE
    INDEX 01 00:00:00
  TRACK 05 AUDIO
    TITLE "Rainforest"
    PERFORMER "Paul Hardcastle"
    REM COMPOSER ""
    INDEX 00 03:06:62
FILE "Paul Hardcastle - The Definitive Paul Hardcastle [1993] [FLAC] {VSOP CD 186}\05 - Rainforest.wav" WAVE
    INDEX 01 00:00:00
  TRACK 06 AUDIO
    TITLE "Eat Your Heart Out"
    PERFORMER "Paul Hardcastle"
    REM COMPOSER ""
    INDEX 00 04:20:68
FILE "Paul Hardcastle - The Definitive Paul Hardcastle [1993] [FLAC] {VSOP CD 186}\06 - Eat Your Heart Out.wav" WAVE
    INDEX 01 00:00:00
  TRACK 07 AUDIO
    TITLE "19"
    PERFORMER "Paul Hardcastle"
    REM COMPOSER ""
    INDEX 00 05:51:10
FILE "Paul Hardcastle - The Definitive Paul Hardcastle [1993] [FLAC] {VSOP CD 186}\07 - 19.wav" WAVE
    INDEX 01 00:00:00
  TRACK 08 AUDIO
    TITLE "Don't Waste My Time"
    PERFORMER "Paul Hardcastle"
    REM COMPOSER ""
    INDEX 00 05:13:72
FILE "Paul Hardcastle - The Definitive Paul Hardcastle [1993] [FLAC] {VSOP CD 186}\08 - Don't Waste My Time.wav" WAVE
    INDEX 01 00:00:00
  TRACK 09 AUDIO
    TITLE "Foolin' Yourself"
    PERFORMER "Paul Hardcastle"
    REM COMPOSER ""
    INDEX 00 05:35:30
FILE "Paul Hardcastle - The Definitive Paul Hardcastle [1993] [FLAC] {VSOP CD 186}\09 - Foolin' Yourself.wav" WAVE
    INDEX 01 00:00:00
  TRACK 10 AUDIO
    TITLE "The Wizard"
    PERFORMER "Paul Hardcastle"
    REM COMPOSER ""
    INDEX 00 06:22:40
FILE "Paul Hardcastle - The Definitive Paul Hardcastle [1993] [FLAC] {VSOP CD 186}\10 - The Wizard.wav" WAVE
    INDEX 01 00:00:00
  TRACK 11 AUDIO
    TITLE "Walk In The Night"
    PERFORMER "Paul Hardcastle"
    REM COMPOSER ""
    INDEX 00 04:46:30
FILE "Paul Hardcastle - The Definitive Paul Hardcastle [1993] [FLAC] {VSOP CD 186}\11 - Walk In The Night.wav" WAVE
    INDEX 01 00:00:00
  TRACK 12 AUDIO
    TITLE "40 Years"
    PERFORMER "Paul Hardcastle"
    REM COMPOSER ""
    INDEX 00 05:08:70
FILE "Paul Hardcastle - The Definitive Paul Hardcastle [1993] [FLAC] {VSOP CD 186}\12 - 40 Years.wav" WAVE
    INDEX 01 00:00:00
  TRACK 13 AUDIO
    TITLE "Dark Star"
    PERFORMER "Paul Hardcastle"
    REM COMPOSER ""
    INDEX 00 04:59:30
FILE "Paul Hardcastle - The Definitive Paul Hardcastle [1993] [FLAC] {VSOP CD 186}\13 - Dark Star.wav" WAVE
    INDEX 01 00:00:00
  TRACK 14 AUDIO
    TITLE "Rainforest '93"
    PERFORMER "Paul Hardcastle"
    REM COMPOSER ""
    INDEX 00 04:22:38
FILE "Paul Hardcastle - The Definitive Paul Hardcastle [1993] [FLAC] {VSOP CD 186}\14 - Rainforest '93.wav" WAVE
    INDEX 01 00:00:00
Лог проверки качества
[CUETools log; Date: 13.02.2019 18:09:38; Version: 2.1.6]
Pregap length 00:00:33.
[CTDB TOCID: GqRpVJKDCs2cv3MPppghhK0G8Zs-] found.
        [ CTDBID ] Status
        [90fd28c2] (33/37) Accurately ripped
        [b911a106] (02/37) Has pregap length 00:00:00, No match
        [2ace987e] (01/37) No match
        [09791c4b] (01/37) No match
Track | CTDB Status
  1   | (37/37) Accurately ripped
  2   | (37/37) Accurately ripped
  3   | (37/37) Accurately ripped
  4   | (37/37) Accurately ripped
  5   | (35/37) Accurately ripped
  6   | (37/37) Accurately ripped
  7   | (37/37) Accurately ripped
  8   | (37/37) Accurately ripped
  9   | (37/37) Accurately ripped
 10   | (37/37) Accurately ripped
 11   | (37/37) Accurately ripped
 12   | (35/37) Accurately ripped
 13   | (33/37) Accurately ripped
 14   | (33/37) Accurately ripped
[AccurateRip ID: 0025b29f-0190142e-cc10e80e] found.
Track   [  CRC   |   V2   ] Status
 01     [89caad2a|3ff8b1a2] (12+15/27) Accurately ripped
 02     [f08ca9f9|1e692933] (12+15/27) Accurately ripped
 03     [6b348f25|aeb37875] (13+16/29) Accurately ripped
 04     [30203756|4db0ba5b] (12+15/27) Accurately ripped
 05     [2b1fed9d|116c7123] (13+16/29) Accurately ripped
 06     [197e7cda|c23524cb] (12+15/27) Accurately ripped
 07     [a6a2ef7c|4b55cf05] (12+16/28) Accurately ripped
 08     [1846014e|c61e7740] (13+16/29) Accurately ripped
 09     [a5e273f9|3ef16ce3] (12+15/27) Accurately ripped
 10     [1e7de5ef|ebbc2b84] (12+15/27) Accurately ripped
 11     [c0ad4591|a7ca635e] (12+16/28) Accurately ripped
 12     [441fa5fa|9b7fc444] (12+14/26) Accurately ripped
 13     [d1dcf713|1e629aac] (12+14/26) Accurately ripped
 14     [31e12261|7e7c6e2b] (12+14/26) Accurately ripped

Track Peak [ CRC32  ] [W/O NULL] [  LOG   ]
 --  100,0 [9DAD364B] [276B7B6A]           
 01  100,0 [76BAC5FE] [C981ABC0]   CRC32   
 02   97,9 [AB05ADBB] [FBC1BA6B]   CRC32   
 03  100,0 [1C75EEF4] [E0BB0683]   CRC32   
 04   99,0 [912DBAE6] [FC0C8FCD]   CRC32   
 05   97,1 [62CA93E7] [7A624DC7]   CRC32   
 06   97,8 [BAC6D52E] [85E48F04]   CRC32   
 07   98,2 [E1499749] [A1C39D46]   CRC32   
 08  100,0 [8ABB1A4E] [66403474]   CRC32   
 09  100,0 [8A0706D0] [55D2D4DA]   CRC32   
 10   97,5 [BDBEA59D] [251ECE69]   CRC32   
 11  100,0 [9D429184] [5540DD34]   CRC32   
 12   99,6 [804CAA40] [8775FF45]   CRC32   
 13   99,9 [5BA307B3] [7EDF1B35]   CRC32   
 14  100,0 [8433A07E] [B1D82666]   CRC32   
Приватный:
Нет (DHT включён)
Размер:
469.41 Мб (492,212,242 байт) » файлов: 23
Участники:
5 раздают, 0 качают (5 участников всего)
Внешние участники:
--- [ Обновить ]
Никого нет на раздаче - пишите ЛС M0p94ok
No seeders - write PM to M0p94ok
19:10
19
Нет комментариев. Ваш будет первым!