Вы используете незарегистрированную версию компонента "Вкладки"!

Поиск

1993 Larry Coryell - Fallen Angel {CTI MA 70 01 236}

1993 Larry Coryell - Fallen Angel {CTI MA 70 01 236}
Лог создания рипа
Exact Audio Copy V1.0 beta 3 from 29. August 2011
EAC extraction logfile from 11. November 2015, 11:20
Larry Coryell / Fallen Angel
Used drive  : Optiarc DVD RW AD-7260S   Adapter: 3  ID: 0
Read mode               : Secure
Utilize accurate stream : Yes
Defeat audio cache      : Yes
Make use of C2 pointers : No
Read offset correction                      : 48
Overread into Lead-In and Lead-Out          : No
Fill up missing offset samples with silence : Yes
Delete leading and trailing silent blocks   : No
Null samples used in CRC calculations       : Yes
Used interface                              : Native Win32 interface for Win NT & 2000
Gap handling                                : Appended to previous track
Used output format              : User Defined Encoder
Selected bitrate                : 128 kBit/s
Quality                         : High
Add ID3 tag                     : No
Command line compressor         : C:\Program Files (x86)\Exact Audio Copy\Flac\flac.exe
Additional command line options : -V -8 -T "Genre=%genre%" -T "Artist=%artist%" -T "Title=%title%" -T "Album=%albumtitle%" -T "Date=%year%" -T "Tracknumber=%tracknr%" -T "Comment=%comment%" %source%
TOC of the extracted CD
     Track |   Start  |  Length  | Start sector | End sector
    ---------------------------------------------------------
        1  |  0:00.00 |  3:31.15 |         0    |    15839
        2  |  3:31.15 |  3:45.35 |     15840    |    32749
        3  |  7:16.50 |  3:34.15 |     32750    |    48814
        4  | 10:50.65 |  5:40.20 |     48815    |    74334
        5  | 16:31.10 |  0:54.58 |     74335    |    78442
        6  | 17:25.68 |  4:31.62 |     78443    |    98829
        7  | 21:57.55 |  3:07.33 |     98830    |   112887
        8  | 25:05.13 |  5:52.45 |    112888    |   139332
        9  | 30:57.58 |  4:49.10 |    139333    |   161017
       10  | 35:46.68 |  4:32.20 |    161018    |   181437
       11  | 40:19.13 |  6:25.45 |    181438    |   210357
       12  | 46:44.58 |  2:03.55 |    210358    |   219637
       13  | 48:48.38 |  2:53.65 |    219638    |   232677
Track  1
     Filename C:\rip by readab\Larry Coryell - Fallen Angel (1993, CTI Records MA 70 01 236)\01 - Inner City Blues.wav
     Pre-gap length  0:00:02.00
     Peak level 95.9 %
     Extraction speed 2.2 X
     Track quality 100.0 %
     Test CRC EE0AC2B7
     Copy CRC EE0AC2B7
     Accurately ripped (confidence 12)  [A8EB54C5]  (AR v2)
     Copy OK
Track  2
     Filename C:\rip by readab\Larry Coryell - Fallen Angel (1993, CTI Records MA 70 01 236)\02 - Fallen.wav
     Peak level 92.4 %
     Extraction speed 2.5 X
     Track quality 100.0 %
     Test CRC 92869727
     Copy CRC 92869727
     Accurately ripped (confidence 13)  [8EF9BC08]  (AR v2)
     Copy OK
Track  3
     Filename C:\rip by readab\Larry Coryell - Fallen Angel (1993, CTI Records MA 70 01 236)\03 - Never Never.wav
     Peak level 100.0 %
     Extraction speed 2.7 X
     Track quality 100.0 %
     Test CRC 20C5E38C
     Copy CRC 20C5E38C
     Accurately ripped (confidence 13)  [3AB175A2]  (AR v2)
     Copy OK
Track  4
     Filename C:\rip by readab\Larry Coryell - Fallen Angel (1993, CTI Records MA 70 01 236)\04 - Angel on Sunset.wav
     Peak level 99.0 %
     Extraction speed 2.9 X
     Track quality 99.9 %
     Test CRC A5EF8ECC
     Copy CRC A5EF8ECC
     Accurately ripped (confidence 13)  [A9A20764]  (AR v2)
     Copy OK
Track  5
     Filename C:\rip by readab\Larry Coryell - Fallen Angel (1993, CTI Records MA 70 01 236)\05 - Stardust.wav
     Peak level 94.6 %
     Extraction speed 1.5 X
     Track quality 99.8 %
     Test CRC 24B1F068
     Copy CRC 24B1F068
     Accurately ripped (confidence 13)  [9430F534]  (AR v2)
     Copy OK
Track  6
     Filename C:\rip by readab\Larry Coryell - Fallen Angel (1993, CTI Records MA 70 01 236)\06 - Misty.wav
     Peak level 91.6 %
     Extraction speed 3.4 X
     Track quality 100.0 %
     Test CRC 4AC31DA9
     Copy CRC 4AC31DA9
     Accurately ripped (confidence 13)  [604D26C0]  (AR v2)
     Copy OK
Track  7
     Filename C:\rip by readab\Larry Coryell - Fallen Angel (1993, CTI Records MA 70 01 236)\07 - I Remember Bill.wav
     Peak level 84.7 %
     Extraction speed 3.3 X
     Track quality 100.0 %
     Test CRC 3C209CE9
     Copy CRC 3C209CE9
     Accurately ripped (confidence 13)  [81ADE46D]  (AR v2)
     Copy OK
Track  8
     Filename C:\rip by readab\Larry Coryell - Fallen Angel (1993, CTI Records MA 70 01 236)\08 - Pieta.wav
     Peak level 79.5 %
     Extraction speed 3.8 X
     Track quality 100.0 %
     Test CRC E4BBE8FB
     Copy CRC E4BBE8FB
     Accurately ripped (confidence 12)  [F039D3CB]  (AR v2)
     Copy OK
Track  9
     Filename C:\rip by readab\Larry Coryell - Fallen Angel (1993, CTI Records MA 70 01 236)\09 - Thus Spoke Z.wav
     Peak level 100.0 %
     Extraction speed 3.6 X
     Track quality 99.9 %
     Test CRC 02909A71
     Copy CRC 02909A71
     Accurately ripped (confidence 12)  [9C45135D]  (AR v2)
     Copy OK
Track 10
     Filename C:\rip by readab\Larry Coryell - Fallen Angel (1993, CTI Records MA 70 01 236)\10 - Stella By Starlight.wav
     Peak level 79.9 %
     Extraction speed 4.2 X
     Track quality 100.0 %
     Test CRC FE28D8FE
     Copy CRC FE28D8FE
     Accurately ripped (confidence 12)  [E21A324F]  (AR v2)
     Copy OK
Track 11
     Filename C:\rip by readab\Larry Coryell - Fallen Angel (1993, CTI Records MA 70 01 236)\11 - Monk's Corner.wav
     Peak level 100.0 %
     Extraction speed 4.5 X
     Track quality 100.0 %
     Test CRC 41322435
     Copy CRC 41322435
     Accurately ripped (confidence 11)  [78F3A012]  (AR v2)
     Copy OK
Track 12
     Filename C:\rip by readab\Larry Coryell - Fallen Angel (1993, CTI Records MA 70 01 236)\12 - Westerly Wind.wav
     Peak level 63.5 %
     Extraction speed 3.9 X
     Track quality 100.0 %
     Test CRC D4E61517
     Copy CRC D4E61517
     Accurately ripped (confidence 13)  [035868BE]  (AR v2)
     Copy OK
Track 13
     Filename C:\rip by readab\Larry Coryell - Fallen Angel (1993, CTI Records MA 70 01 236)\13 -  The Moon.wav
     Peak level 84.8 %
     Extraction speed 4.3 X
     Track quality 100.0 %
     Test CRC FD0B6895
     Copy CRC FD0B6895
     Accurately ripped (confidence 13)  [0D449C36]  (AR v2)
     Copy OK
All tracks accurately ripped
No errors occurred
End of status report
==== Log checksum 1C24EA592F988A18FE97BD56B4D3FF47719068C14CBD451BC04E9246CA8E3821 ====
Содержание индексной карты (.CUE)
REM GENRE Jazz
REM DATE 1993
REM DISCID AD0C1E0D
REM COMMENT "ExactAudioCopy v1.0b3"
PERFORMER "Larry Coryell"
TITLE "Fallen Angel"
FILE "01 - Inner City Blues.wav" WAVE
  TRACK 01 AUDIO
    TITLE "Inner City Blues"
    PERFORMER "Larry Coryell"
    INDEX 01 00:00:00
FILE "02 - Fallen.wav" WAVE
  TRACK 02 AUDIO
    TITLE "Fallen"
    PERFORMER "Larry Coryell"
    INDEX 01 00:00:00
FILE "03 - Never Never.wav" WAVE
  TRACK 03 AUDIO
    TITLE "Never Never"
    PERFORMER "Larry Coryell"
    INDEX 01 00:00:00
FILE "04 - Angel on Sunset.wav" WAVE
  TRACK 04 AUDIO
    TITLE "Angel on Sunset"
    PERFORMER "Larry Coryell"
    INDEX 01 00:00:00
FILE "05 - Stardust.wav" WAVE
  TRACK 05 AUDIO
    TITLE "Stardust"
    PERFORMER "Larry Coryell"
    INDEX 01 00:00:00
FILE "06 - Misty.wav" WAVE
  TRACK 06 AUDIO
    TITLE "Misty"
    PERFORMER "Larry Coryell"
    INDEX 01 00:00:00
FILE "07 - I Remember Bill.wav" WAVE
  TRACK 07 AUDIO
    TITLE "I Remember Bill"
    PERFORMER "Larry Coryell"
    INDEX 01 00:00:00
FILE "08 - Pieta.wav" WAVE
  TRACK 08 AUDIO
    TITLE "Pieta"
    PERFORMER "Larry Coryell"
    INDEX 01 00:00:00
FILE "09 - Thus Spoke Z.wav" WAVE
  TRACK 09 AUDIO
    TITLE "Thus Spoke Z"
    PERFORMER "Larry Coryell"
    INDEX 01 00:00:00
FILE "10 - Stella By Starlight.wav" WAVE
  TRACK 10 AUDIO
    TITLE "Stella By Starlight"
    PERFORMER "Larry Coryell"
    INDEX 01 00:00:00
FILE "11 - Monk's Corner.wav" WAVE
  TRACK 11 AUDIO
    TITLE "Monk's Corner"
    PERFORMER "Larry Coryell"
    INDEX 01 00:00:00
FILE "12 - Westerly Wind.wav" WAVE
  TRACK 12 AUDIO
    TITLE "Westerly Wind"
    PERFORMER "Larry Coryell"
    INDEX 01 00:00:00
FILE "13 -  The Moon.wav" WAVE
  TRACK 13 AUDIO
    TITLE " The Moon"
    PERFORMER "Larry Coryell"
    INDEX 01 00:00:00
Any questions - support@pro-jazz.com. Есть вопросы - support@pro-jazz.com
21:00
247
Нет комментариев. Ваш будет первым!