Поиск

1993 David Murray - Ballads For Bass Clarinet {DIW DIW-880}

1993 David Murray - Ballads For Bass Clarinet {DIW DIW-880}
Дата записи диска:
20 февраля 1994
Дата издания диска:
2 января 1995
Издатель (лейбл):
Номер по каталогу:
DIW-880
Носитель:
CD
Битрейт аудио:
lossless
Аудиокодек:
FLAC (*.flac)
Тип рипа:
tracks+.cue
Время звучания:
52:16
Наличие сканов:
  • нет
Релизёр (источник):
ZedBit
Состав:
  • David Murray tenor saxophone
  • John Hicks piano
  • Ray Drummond bass
  • Idris Muhammad drums
  • Kazunori Sugiyama producer
  • Jim Anderson recording engineer

Записано в 

  • RPM, New York, NY

1 Waltz To Heaven 9:36
2 New Life 6:35
3 Chazz 8:44
4 Portrait of A Black Woman 11:39
5 Lyons Street 3:24
6 Elegy For Fannie Lou 9:46

Лог создания рипа
Exact Audio Copy V0.99 prebeta 3 from 28. July 2007

EAC extraction logfile from 27. February 2008, 14:57

David Murray / Ballads for Bass Clarinet

Used drive : HL-DT-STDVDRAM GSA-4165B Adapter: 1 ID: 0

Read mode : Secure
Utilize accurate stream : Yes
Defeat audio cache : Yes
Make use of C2 pointers : No

Read offset correction : 667
Overread into Lead-In and Lead-Out : No
Fill up missing offset samples with silence : Yes
Delete leading and trailing silent blocks : No
Null samples used in CRC calculations : No
Used interface : Native Win32 interface for Win NT & 2000
Gap handling : Not detected, thus appended to previous track

Used output format : User Defined Encoder
Selected bitrate : 768 kBit/s
Quality : High
Add ID3 tag : No
Command line compressor : C:\Program Files\Exact Audio Copy\FLAC\FLAC.EXE
Additional command line options : -6 -V -T "ARTIST=%a" -T "TITLE=%t" -T "ALBUM=%g" -T "DATE=%y" -T "TRACKNUMBER=%n" -T "GENRE=%m" -T "COMMENT=%e" %s -o %d

TOC of the extracted CD

Track | Start | Length | Start sector | End sector
---------------------------------------------------------
1 | 0:00.00 | 9:36.25 | 0 | 43224
2 | 9:36.25 | 9:05.30 | 43225 | 84129
3 | 18:41.55 | 8:44.50 | 84130 | 123479
4 | 27:26.30 | 11:39.25 | 123480 | 175929
5 | 39:05.55 | 3:24.12 | 175930 | 191241
6 | 42:29.67 | 9:46.18 | 191242 | 235209

Track 1

Filename C:\Family_Folder\Torrent\0_My_Music\David Murray - Ballads for Bass Clarinet (1993)\David Murray-01Waltz To Heaven.wav

Peak level 78.1 %
Track quality 100.0 %
Copy CRC 76DEE5BE
Cannot be verified as accurate (confidence 1) [45BCB901], AccurateRip returned [1648710E]
Copy OK

Track 2

Filename C:\Family_Folder\Torrent\0_My_Music\David Murray - Ballads for Bass Clarinet (1993)\David Murray-02New Life.wav

Peak level 100.0 %
Track quality 100.0 %
Copy CRC 0A40FC63
Cannot be verified as accurate (confidence 1) [1F1B8E98], AccurateRip returned [DD2C0032]
Copy OK

Track 3

Filename C:\Family_Folder\Torrent\0_My_Music\David Murray - Ballads for Bass Clarinet (1993)\David Murray-03Chazz.wav

Suspicious position 0:00:00

Peak level 96.1 %
Track quality 99.8 %
Copy CRC D90BD40B
Cannot be verified as accurate (confidence 1) [81AF2D21], AccurateRip returned [253C2DD2]
Copy finished

Track 4

Filename C:\Family_Folder\Torrent\0_My_Music\David Murray - Ballads for Bass Clarinet (1993)\David Murray-04Portrait of A Black Woman.wav

Peak level 99.1 %
Track quality 99.9 %
Copy CRC 873CA839
Cannot be verified as accurate (confidence 1) [F43B41DC], AccurateRip returned [80A09020]
Copy OK

Track 5

Filename C:\Family_Folder\Torrent\0_My_Music\David Murray - Ballads for Bass Clarinet (1993)\David Murray-05Lyons Street.wav

Peak level 100.0 %
Track quality 100.0 %
Copy CRC 9CAD1336
Cannot be verified as accurate (confidence 1) [BEC9EE0A], AccurateRip returned [EB73A041]
Copy OK

Track 6

Filename C:\Family_Folder\Torrent\0_My_Music\David Murray - Ballads for Bass Clarinet (1993)\David Murray-06Elegy For Fannie Lou.wav

Peak level 100.0 %
Track quality 100.0 %
Copy CRC D94EB3D7
Cannot be verified as accurate (confidence 1) [7333CB46], AccurateRip returned [51725897]
Copy OK

No tracks could be verified as accurate

There were errors

End of status report
Скачивание доступно после регистрации!!
Приватный:
Нет (DHT включён)
Размер:
257.96 Мб (270,487,889 байт) » файлов: 10
Участники:
6 раздают, 1 качают (7 участников всего)
Внешние участники:
5 раздают, 1 качают (6 участников всего) [ Обновить ]
18:07
198
RSS
Нет комментариев. Ваш будет первым!