Поиск

1993 Acker Bilk - Gold {San Juan GOLD 075} [CD]

1993 Acker Bilk - Gold {San Juan GOLD 075} [CD]
Стили:
Треклист:

01 Stranger On The Shore
02 I Want To Know What Love
03 I Just Called To Say I Love You
04 Hello
05 To All The Girls I've Loved Before
06 Longfellow Serenade
07 Always On My Mind
08 Arthur's Theme
09 Do That To Me One More Time
10 Three Time A Lady
11 This Masquerade
12 Just Once
13 Could I Have This Dance
14 Still

Жанр: Jazz, Easy Listening
Носитель: CD
Страна-производитель диска (релиза): Netherlands
Год издания: 1993
Издатель (лейбл): San Juan
Номер по каталогу: GOLD 075
Аудиокодек: FLAC (*.flac)
Тип рипа: tracks+.cue
Битрейт аудио: lossless
Продолжительность: 00:51:26
Источник: локальная сеть
Наличие сканов в содержимом раздачи: нет

Лог создания рипа
Exact Audio Copy V1.0 beta 3 from 29. August 2011

EAC extraction logfile from 10. May 2014, 22:29

Mr. Acker Bilk / Gold

Used drive  : ASUS    DRW-24F1ST   a   Adapter: 0  ID: 1

Read mode               : Secure
Utilize accurate stream : Yes
Defeat audio cache      : Yes
Make use of C2 pointers : No

Read offset correction                      : 6
Overread into Lead-In and Lead-Out          : No
Fill up missing offset samples with silence : Yes
Delete leading and trailing silent blocks   : No
Null samples used in CRC calculations       : Yes
Used interface                              : Native Win32 interface for Win NT & 2000
Gap handling                                : Appended to previous track

Used output format              : User Defined Encoder
Selected bitrate                : 1024 kBit/s
Quality                         : High
Add ID3 tag                     : No
Command line compressor         : F:\Exact Audio Copy\Flac\flac.exe
Additional command line options : -8 -V -T "ARTIST=%artist%" -T "TITLE=%title%" -T "ALBUM=%albumtitle%" -T "DATE=%year%" -T "TRACKNUMBER=%tracknr%" -T "GENRE=%genre%" -T "PERFORMER=%albuminterpret%" -T "COMPOSER=%composer%" %haslyrics%--tag-from-file=LYRICS="%lyricsfile%"%haslyrics% -T "ALBUMARTIST=%albumartist%" -T "DISCNUMBER=%cdnumber%" -T "TOTALDISCS=%totalcds%" -T "TOTALTRACKS=%numtracks%" -T "COMMENT=%comment%" %source% -o %dest%

TOC of the extracted CD

     Track |   Start  |  Length  | Start sector | End sector
    ---------------------------------------------------------
        1  |  0:00.00 |  2:50.20 |         0    |    12769
        2  |  2:50.20 |  4:04.30 |     12770    |    31099
        3  |  6:54.50 |  4:21.50 |     31100    |    50724
        4  | 11:16.25 |  4:14.00 |     50725    |    69774
        5  | 15:30.25 |  3:31.05 |     69775    |    85604
        6  | 19:01.30 |  3:55.45 |     85605    |   103274
        7  | 22:57.00 |  3:45.55 |    103275    |   120204
        8  | 26:42.55 |  3:31.58 |    120205    |   136087
        9  | 30:14.38 |  3:24.15 |    136088    |   151402
       10  | 33:38.53 |  3:35.12 |    151403    |   167539
       11  | 37:13.65 |  3:04.30 |    167540    |   181369
       12  | 40:18.20 |  4:28.48 |    181370    |   201517
       13  | 44:46.68 |  3:09.70 |    201518    |   215762
       14  | 47:56.63 |  3:30.00 |    215763    |   231512

Track  1

     Filename H:\EAC rips\FLAC\Mr. Acker Bilk - Gold (1993) [FLAC]\01 - Stranger on the shore.wav

     Pre-gap length  0:00:02.00

     Peak level 100.0 %
     Extraction speed 3.1 X
     Track quality 100.0 %
     Test CRC C8F8BB30
     Copy CRC C8F8BB30
     Accurately ripped (confidence 1)  [19EE1923]  (AR v2)
     Copy OK

Track  2

     Filename H:\EAC rips\FLAC\Mr. Acker Bilk - Gold (1993) [FLAC]\02 - I want to know what love is.wav

     Pre-gap length  0:00:02.40

     Peak level 100.0 %
     Extraction speed 3.7 X
     Track quality 100.0 %
     Test CRC 54973274
     Copy CRC 54973274
     Accurately ripped (confidence 1)  [2CC543A4]  (AR v2)
     Copy OK

Track  3

     Filename H:\EAC rips\FLAC\Mr. Acker Bilk - Gold (1993) [FLAC]\03 - I just called to say I love you.wav

     Pre-gap length  0:00:02.36

     Peak level 80.5 %
     Extraction speed 4.0 X
     Track quality 100.0 %
     Test CRC CD584679
     Copy CRC CD584679
     Accurately ripped (confidence 1)  [9DC4603C]  (AR v2)
     Copy OK

Track  4

     Filename H:\EAC rips\FLAC\Mr. Acker Bilk - Gold (1993) [FLAC]\04 - Hello.wav

     Pre-gap length  0:00:02.36

     Peak level 75.7 %
     Extraction speed 3.9 X
     Track quality 100.0 %
     Test CRC 14A7FFB5
     Copy CRC 14A7FFB5
     Accurately ripped (confidence 1)  [59945213]  (AR v2)
     Copy OK

Track  5

     Filename H:\EAC rips\FLAC\Mr. Acker Bilk - Gold (1993) [FLAC]\05 - To all the girls I've loved before.wav

     Pre-gap length  0:00:02.36

     Peak level 85.1 %
     Extraction speed 4.0 X
     Track quality 100.0 %
     Test CRC FAFC7D5A
     Copy CRC FAFC7D5A
     Accurately ripped (confidence 1)  [CA0E3363]  (AR v2)
     Copy OK

Track  6

     Filename H:\EAC rips\FLAC\Mr. Acker Bilk - Gold (1993) [FLAC]\06 - Longfellow serenade.wav

     Pre-gap length  0:00:02.40

     Peak level 80.2 %
     Extraction speed 5.0 X
     Track quality 100.0 %
     Test CRC 48920E9E
     Copy CRC 48920E9E
     Accurately ripped (confidence 1)  [CE0EB70C]  (AR v2)
     Copy OK

Track  7

     Filename H:\EAC rips\FLAC\Mr. Acker Bilk - Gold (1993) [FLAC]\07 - Always on my mind.wav

     Pre-gap length  0:00:02.36

     Peak level 86.3 %
     Extraction speed 4.1 X
     Track quality 99.9 %
     Test CRC 5DA632F7
     Copy CRC 5DA632F7
     Accurately ripped (confidence 1)  [2FEDC03A]  (AR v2)
     Copy OK

Track  8

     Filename H:\EAC rips\FLAC\Mr. Acker Bilk - Gold (1993) [FLAC]\08 - Arthur's theme.wav

     Pre-gap length  0:00:02.36

     Peak level 85.8 %
     Extraction speed 5.4 X
     Track quality 100.0 %
     Test CRC 4B9D9D04
     Copy CRC 4B9D9D04
     Accurately ripped (confidence 1)  [F7F7CA6D]  (AR v2)
     Copy OK

Track  9

     Filename H:\EAC rips\FLAC\Mr. Acker Bilk - Gold (1993) [FLAC]\09 - Do that to me one more time.wav

     Pre-gap length  0:00:02.40

     Peak level 80.3 %
     Extraction speed 4.8 X
     Track quality 99.9 %
     Test CRC 9DE60FB3
     Copy CRC 9DE60FB3
     Accurately ripped (confidence 1)  [8C6CC6FD]  (AR v2)
     Copy OK

Track 10

     Filename H:\EAC rips\FLAC\Mr. Acker Bilk - Gold (1993) [FLAC]\10 - Three times a lady.wav

     Pre-gap length  0:00:02.40

     Peak level 85.2 %
     Extraction speed 5.7 X
     Track quality 100.0 %
     Test CRC 6E140F1E
     Copy CRC 6E140F1E
     Accurately ripped (confidence 1)  [32782644]  (AR v2)
     Copy OK

Track 11

     Filename H:\EAC rips\FLAC\Mr. Acker Bilk - Gold (1993) [FLAC]\11 - This masquerade.wav

     Pre-gap length  0:00:02.40

     Peak level 82.6 %
     Extraction speed 5.6 X
     Track quality 100.0 %
     Test CRC F34B4611
     Copy CRC F34B4611
     Accurately ripped (confidence 1)  [71FEC335]  (AR v2)
     Copy OK

Track 12

     Filename H:\EAC rips\FLAC\Mr. Acker Bilk - Gold (1993) [FLAC]\12 - Just once.wav

     Pre-gap length  0:00:02.40

     Peak level 85.1 %
     Extraction speed 5.2 X
     Track quality 100.0 %
     Test CRC 6A3EFD17
     Copy CRC 6A3EFD17
     Accurately ripped (confidence 1)  [E5F429AD]  (AR v2)
     Copy OK

Track 13

     Filename H:\EAC rips\FLAC\Mr. Acker Bilk - Gold (1993) [FLAC]\13 - Could I have this dance.wav

     Pre-gap length  0:00:02.40

     Peak level 82.0 %
     Extraction speed 4.4 X
     Track quality 100.0 %
     Test CRC 96F19645
     Copy CRC 96F19645
     Accurately ripped (confidence 1)  [E7E938D7]  (AR v2)
     Copy OK

Track 14

     Filename H:\EAC rips\FLAC\Mr. Acker Bilk - Gold (1993) [FLAC]\14 - Still.wav

     Pre-gap length  0:00:02.40

     Peak level 86.3 %
     Extraction speed 5.8 X
     Track quality 100.0 %
     Test CRC 62B9EBA1
     Copy CRC 62B9EBA1
     Accurately ripped (confidence 1)  [889E8A92]  (AR v2)
     Copy OK

All tracks accurately ripped

No errors occurred

End of status report

---- CUETools DB Plugin V2.1.3

[CTDB TOCID: Y8nuh_LmcKR1MZ6cpxszx3O7lY4-] found, Submit result: Y8nuh_LmcKR1MZ6cpxszx3O7lY4- has been confirmed
[fe488ae5] (1/1) Accurately ripped

==== Log checksum D92D9B7C5929A89198284FFC82F64BC4554B4BE63E50E31608C7329C5567B43E ====
Содержание индексной карты (.CUE)
REM GENRE Jazz
REM DATE 1993
REM DISCID BB0C0E0E
REM COMMENT "ExactAudioCopy v1.0b3"
PERFORMER "Mr. Acker Bilk"
TITLE "Gold"
FILE "01 - Stranger on the shore.wav" WAVE
  TRACK 01 AUDIO
    TITLE "Stranger on the shore"
    PERFORMER "Mr. Acker Bilk"
    INDEX 01 00:00:00
  TRACK 02 AUDIO
    TITLE "I want to know what love is"
    PERFORMER "Mr. Acker Bilk"
    INDEX 00 02:47:65
FILE "02 - I want to know what love is.wav" WAVE
    INDEX 01 00:00:00
  TRACK 03 AUDIO
    TITLE "I just called to say I love you"
    PERFORMER "Mr. Acker Bilk"
    INDEX 00 04:02:03
FILE "03 - I just called to say I love you.wav" WAVE
    INDEX 01 00:00:00
  TRACK 04 AUDIO
    TITLE "Hello"
    PERFORMER "Mr. Acker Bilk"
    INDEX 00 04:19:23
FILE "04 - Hello.wav" WAVE
    INDEX 01 00:00:00
  TRACK 05 AUDIO
    TITLE "To all the girls I've loved before"
    PERFORMER "Mr. Acker Bilk"
    INDEX 00 04:11:48
FILE "05 - To all the girls I've loved before.wav" WAVE
    INDEX 01 00:00:00
  TRACK 06 AUDIO
    TITLE "Longfellow serenade"
    PERFORMER "Mr. Acker Bilk"
    INDEX 00 03:28:50
FILE "06 - Longfellow serenade.wav" WAVE
    INDEX 01 00:00:00
  TRACK 07 AUDIO
    TITLE "Always on my mind"
    PERFORMER "Mr. Acker Bilk"
    INDEX 00 03:53:18
FILE "07 - Always on my mind.wav" WAVE
    INDEX 01 00:00:00
  TRACK 08 AUDIO
    TITLE "Arthur's theme"
    PERFORMER "Mr. Acker Bilk"
    INDEX 00 03:43:28
FILE "08 - Arthur's theme.wav" WAVE
    INDEX 01 00:00:00
  TRACK 09 AUDIO
    TITLE "Do that to me one more time"
    PERFORMER "Mr. Acker Bilk"
    INDEX 00 03:29:28
FILE "09 - Do that to me one more time.wav" WAVE
    INDEX 01 00:00:00
  TRACK 10 AUDIO
    TITLE "Three times a lady"
    PERFORMER "Mr. Acker Bilk"
    INDEX 00 03:21:60
FILE "10 - Three times a lady.wav" WAVE
    INDEX 01 00:00:00
  TRACK 11 AUDIO
    TITLE "This masquerade"
    PERFORMER "Mr. Acker Bilk"
    INDEX 00 03:32:57
FILE "11 - This masquerade.wav" WAVE
    INDEX 01 00:00:00
  TRACK 12 AUDIO
    TITLE "Just once"
    PERFORMER "Mr. Acker Bilk"
    INDEX 00 03:02:00
FILE "12 - Just once.wav" WAVE
    INDEX 01 00:00:00
  TRACK 13 AUDIO
    TITLE "Could I have this dance"
    PERFORMER "Mr. Acker Bilk"
    INDEX 00 04:26:18
FILE "13 - Could I have this dance.wav" WAVE
    INDEX 01 00:00:00
  TRACK 14 AUDIO
    TITLE "Still"
    PERFORMER "Mr. Acker Bilk"
    INDEX 00 03:07:40
FILE "14 - Still.wav" WAVE
    INDEX 01 00:00:00
Download available for power users only.
00:32
434
Нет комментариев. Ваш будет первым!