Поиск

1992 Teddy Edwards - Mississippi Lad (feat. Tom Waits) {Antilles 314-511 411-2}

1992 Teddy Edwards - Mississippi Lad (feat. Tom Waits) {Antilles 314-511 411-2}
Страна-производитель диска (релиза):
USA
Дата записи диска:
13-14 марта 1991
Дата издания диска:
26 февраля 1992
Номер по каталогу:
314-511 411-2
Носитель:
CD
Битрейт аудио:
lossless
Аудиокодек:
FLAC (*.flac)
Тип рипа:
image+.cue
Время звучания:
57 : 47
Наличие сканов:
  • да
Релизёр (источник):
funny_horse

Треклист:

01. Little Man (feat. Tom Waits)
02. Safari Walk
03. The Blue Sombrero
04. Mississippi Lad
05. Three Base Hit
06. I'm Not Your Fool Anymore (feat. Tom Waits)
07. Symphony On Central
08. Ballad For A Bronze Beauty
09. The Call Of Love

Состав:
  • Jean-Philippe Allard Producer
  • Ray Armando Percussion
  • Jimmy Cleveland Trombone
  • Teddy Edwards Composer, Sax (Tenor)
  • Billy Higgins Drums
  • Art Hillery Piano
  • Nolan Andrew Smith Trumpet
  • Walter Spencer Engineer
  • Leroy Vinnegar Bass
  • Tom Waits Guitar, Vocals

Записано в Sunset Sound, Hollywood, CA

Лог создания рипа
Exact Audio Copy V0.99 prebeta 3 from 28. July 2007
Отчёт EAC об извлечении, выполненном 26. января 2008, 0:52
Teddy Edwards / Mississippi Lad
Дисковод: TOSHIBA DVD-ROM SD-M1712 Adapter: 0 ID: 3
Режим чтения : Достоверность
Использование точного потока : Да
Отключение кэша аудио : Да
Использование указателей C2 : Нет
Коррекция смещения при чтении : -472
Способность читать области Lead-in и Lead-out : Нет
Заполнение пропущенных сэмплов тишиной : Да
Удаление блоков с тишиной в начале и конце : Нет
При вычислениях CRC использовались нулевые сэмплы : Да
Интерфейс : Установленный внешний ASPI-интерфейс
Выходной формат : Пользовательский кодировщик
Выбранный битрейт : 768 kBit/s
Качество : Высокий
Добавление ID3-тэга : Нет
Утилита сжатия : C:\Program Files\Exact Audio Copy\FLAC\FLAC.EXE
Дополнительные параметры : -6 -V -T "ARTIST=%a" -T "TITLE=%t" -T "ALBUM=%g" -T "DATE=%y" -T "TRACKNUMBER=%n" -T "GENRE=%m" -T "COMMENT=%e" %s -o %d
TOC извлечённого CD
Трек | Старт | Длительность | Начальный сектор | Конечный сектор
---------------------------------------------------------------------
1 | 0:00.33 | 4:39.17 | 33 | 20974
2 | 4:39.50 | 7:43.43 | 20975 | 55742
3 | 12:23.18 | 6:13.65 | 55743 | 83782
4 | 18:37.08 | 6:44.30 | 83783 | 114112
5 | 25:21.38 | 7:13.15 | 114113 | 146602
6 | 32:34.53 | 5:02.47 | 146603 | 169299
7 | 37:37.25 | 6:36.18 | 169300 | 199017
8 | 44:13.43 | 5:12.60 | 199018 | 222477
9 | 49:26.28 | 8:22.02 | 222478 | 260129
Характеристики диапазона извлечения и сообщения об ошибках
Выбранный диапазон
Имя файла G:\My Docs 2\My Music 2\Teddy Edwards - Mississippi Lad\Teddy Edwards - Mississippi Lad.wav
Пиковый уровень 97.7 %
Качество диапазона 99.9 %
CRC копии 3378AA8F
Копирование... OK
Ошибок не произошло
Конец отчёта
Приватный:
Нет (DHT включён)
Размер:
351.75 Мб (368,839,640 байт) » файлов: 14
Участники:
0 раздают, 0 качают (0 участников всего)
Внешние участники:
2 раздают, 1 качают (3 участников всего) [ Обновить ]
20:05
91
RSS
Нет комментариев. Ваш будет первым!