Поиск

1992 Stan Getz with Kenny Barron - People Time (2CD) {EmArcy Gitanes DH0001}

1992 Stan Getz with Kenny Barron - People Time (2CD) {EmArcy Gitanes DH0001}
Страна-производитель диска (релиза):
France
Дата записи диска:
3-6 марта 1991
Дата издания диска:
1992
Издатель (лейбл):
Номер по каталогу:
DH0001
Носитель:
CD
Аудиокодек:
APE (*.ape)
Тип рипа:
image+.cue
Битрейт аудио:
1
Время звучания:
01:55:20
Релизёр (источник):
Гость
Состав:
  • Jean-Philippe Allard    Producer
  • Kenny Barron    Liner Notes, Piano
  • Alain Gerber    Liner Notes
  • Stan Getz    Performer, Sax (Tenor)
  • Charlie Haden    Composer, Liner Notes
  • Ib Skovgaard    Producer
Лог создания рипа
EAC extraction logfile from 22. March 2006, 9:55 for CD
Stan Getz & Kenny Barron / People Time (Disc 1)-1991

Used drive  : SONY    CD-RW  CRX300E   Adapter: 1  ID: 1
Read mode   : Secure with NO C2, accurate stream, disable cache
Read offset correction : 6
Overread into Lead-In and Lead-Out : No

Used output format : L:\Program Files\Monkey's Audio\MAC.exe   (Monkey's Audio Lossless Encoder)
                     Extra High Lossless Compression

Other options      : 
    Fill up missing offset samples with silence : Yes
    Delete leading and trailing silent blocks : No
    Installed external ASPI interface


Range status and errors
Selected range
     Filename E:\Image files\Stan Getz & Kenny Barron-People Time (1991)\Disk 1\CDImage.wav

     Peak level 100.0 %
     Range quality 99.9 %
     CRC 63F9BD24
     Copy OK

No errors occured

End of status report

EAC extraction logfile from 22. March 2006, 14:48 for CD
Stan Getz & Kenny Barron / People Time (Disc 2)-1991

Used drive  : SONY    CD-RW  CRX300E   Adapter: 1  ID: 1
Read mode   : Secure with NO C2, accurate stream, disable cache
Read offset correction : 6
Overread into Lead-In and Lead-Out : No

Used output format : L:\Program Files\Monkey's Audio\MAC.exe   (Monkey's Audio Lossless Encoder)
                     Extra High Lossless Compression

Other options      : 
    Fill up missing offset samples with silence : Yes
    Delete leading and trailing silent blocks : No
    Installed external ASPI interface


Range status and errors
Selected range
     Filename E:\Image files\Stan Getz & Kenny Barron-People Time (1991)\Disk 2\CDImage.wav

     Peak level 100.0 %
     Range quality 99.9 %
     CRC 12417E1C
     Copy OK

No errors occured

End of status report
Содержание индексной карты (.CUE)
PERFORMER "Stan Getz & Kenny Barron"
TITLE "People Time (Disc 1)-1991"
FILE "CDImage.ape" WAVE
  TRACK 01 AUDIO
    TITLE "East of the Sun ( and West of the Moon )"
    PERFORMER "Stan Getz & Kenny Barron"
    INDEX 00 00:00:00
    INDEX 01 00:00:33
  TRACK 02 AUDIO
    TITLE "Night and Day"
    PERFORMER "Stan Getz & Kenny Barron"
    INDEX 01 09:29:50
  TRACK 03 AUDIO
    TITLE "I'm Okay"
    PERFORMER "Stan Getz & Kenny Barron"
    INDEX 01 17:46:03
  TRACK 04 AUDIO
    TITLE "Like Someone in Love"
    PERFORMER "Stan Getz & Kenny Barron"
    INDEX 01 23:10:28
  TRACK 05 AUDIO
    TITLE "Stablemates"
    PERFORMER "Stan Getz & Kenny Barron"
    INDEX 01 31:12:58
  TRACK 06 AUDIO
    TITLE "I Remember Clifford"
    PERFORMER "Stan Getz & Kenny Barron"
    INDEX 01 39:59:33
  TRACK 07 AUDIO
    TITLE "Gone With the Wind"
    PERFORMER "Stan Getz & Kenny Barron"
    INDEX 01 49:03:08

PERFORMER "Stan Getz & Kenny Barron"
TITLE "People Time (Disc 2)-1991"
FILE "CDImage.ape" WAVE
  TRACK 01 AUDIO
    TITLE "First Song ( for Ruth )"
    PERFORMER "Stan Getz & Kenny Barron"
    INDEX 00 00:00:00
    INDEX 01 00:00:33
  TRACK 02 AUDIO
    TITLE "( There is ) No Greater Love"
    PERFORMER "Stan Getz & Kenny Barron"
    INDEX 01 09:55:58
  TRACK 03 AUDIO
    TITLE "The Surrey with the Fringe on Top"
    PERFORMER "Stan Getz & Kenny Barron"
    INDEX 01 18:32:03
  TRACK 04 AUDIO
    TITLE "People Time"
    PERFORMER "Stan Getz & Kenny Barron"
    INDEX 01 27:53:73
  TRACK 05 AUDIO
    TITLE "Softly, as in a Morning Sunrise"
    PERFORMER "Stan Getz & Kenny Barron"
    INDEX 01 34:08:28
  TRACK 06 AUDIO
    TITLE "Hush-a-Bye"
    PERFORMER "Stan Getz & Kenny Barron"
    INDEX 01 42:02:30
  TRACK 07 AUDIO
    TITLE "Soul Eyes"
    PERFORMER "Stan Getz & Kenny Barron"
    INDEX 01 51:35:28
Приватный:
Нет (DHT включён)
Размер:
486.51 Мб (510,141,260 байт) » файлов: 19
Участники:
10 раздают, 1 качают (11 участников всего)
Внешние участники:
3 раздают, 1 качают (4 участников всего) [ Обновить ]
23:30
328
Нет комментариев. Ваш будет первым!