Поиск

1992 Kate McGarry - Easy To Love (2010) {Fone} [DST64]

1992 Kate McGarry - Easy To Love (2010) {Fone} [DST64]
Стили:
Издатель (лейбл):
Треклист:

01. My Heart Stood Still
02. The Night Has A Thousand Eyes
03. Autumn Nocturne
04. Just You, Just Me
05. Get It Straight
06. Body And Soul
07. The Thrill Is Gone
08. Easy To Love
09. Haunted Heart
10. A Felicidade
11. Dearly Beloved
12. You're Nearer

Состав:
  • Bass – Eric Von Essen
  • Drums – Paul Kreibich
  • Piano – Karen Hammack
  • Vocals – Kate McGarry
Доп. инфо:

Формат записи/Источник записи: [SACD-R][OF]
Наличие водяных знаков: Нет
Год издания/переиздания диска: 1992/2010
Издатель (лейбл): Fonè Records
Продолжительность: 00:55:00
Наличие сканов в содержимом раздачи: Буклет PDF

Контейнер: ISO (*.iso)
Тип рипа: image
Разрядность: 64(2,8 MHz/1 Bit)
Формат: DST64
Количество каналов: 2.0

Источник (релизер): https://foneshop.it/en/super-audio-cd/72-kate-mc-garry-easy-to-love.html

Лог проверки качества
foobar2000 1.4.8 / Замер динамического диапазона (DR) 1.1.1
Дата отчёта:  2019-11-17 22:40:24

--------------------------------------------------------------------------------
Анализ:   KATE MC GARRY / EASY TO LOVE
--------------------------------------------------------------------------------

DR         Пики         RMS           Продолжительность трека
--------------------------------------------------------------------------------
DR14      -9.24 дБ   -27.16 дБ      5:21 01-MY HEART STOOD STILL
DR13     -10.36 дБ   -28.82 дБ      3:34 02-THE NIGHT HAS A THOUSAND EYES
DR13     -13.06 дБ   -32.72 дБ      6:13 03-AUTUMN NOCTURNE
DR14      -8.34 дБ   -27.94 дБ      5:18 04-JUST YOU, JUST ME
DR13      -6.32 дБ   -27.21 дБ      4:31 05-GET IT STRAIGHT
DR12     -15.29 дБ   -30.81 дБ      4:23 06-BODY AND SOUL
DR13      -7.97 дБ   -28.15 дБ      5:31 07-THE THRILL IS GONE
DR17      -7.39 дБ   -28.31 дБ      3:27 08-EASY TO LOVE
DR12     -12.77 дБ   -31.93 дБ      3:58 09-HAUNTED HEART
DR14      -8.70 дБ   -28.46 дБ      4:41 10-A FELICIDADE
DR15      -6.52 дБ   -28.07 дБ      4:48 11-DEARLY BELOVED
DR13     -11.80 дБ   -32.39 дБ      3:14 12-YOU'RE NEARER
--------------------------------------------------------------------------------

Количество треков: 12
Реальные значения DR: DR14

Частота:   2822400 Гц / Частота PCM: 88200 Гц
Каналов:   2
Разрядность:   1
Битрейт:   5645 кбит/с
Кодек:   DST64
================================================================================
По всем вопросам пишите личное сообщение пользователю M0p94ok.
17:15
570
Нет комментариев. Ваш будет первым!