Поиск

1992 Jimmie Noone - 1929-1930 {The Chronological Classics 632} [CD]

1992 Jimmie Noone - 1929-1930  {The Chronological Classics 632} [CD]
Дата записи диска:
21 июня 1929 - 28 февраля 1930
Издатель (лейбл):
Номер по каталогу:
CC 632
Носитель:
CD
Тип рипа:
tracks+.cue
Аудиокодек:
FLAC (*.flac)
Битрейт аудио:
lossless
Время звучания:
01:14:26
Наличие сканов:
да

01. Anything You Want (3:22)
02. Birmingham Bertha (3:13)
03. Am I Blue? (3:29)
04. My Daddy Rocks Me (With One Steady Roll) (3:08)
05. Apex Blues (2:58)
06. Ain't Misbehavin' (3:21)
07. That Rhythm Man (3:16)
08. Off Time (2:43)
09. S'posin' (3:11)
10. True Blue Lou (3:17)
11. Through (How Can You Say We're Through?) (2:59)
12. Satisfied (2:50)
13. I'm Doin' What I'm Doin' for Love (3:16)
14. He's a Good Man to Have Around (3:23)
15. My Melancholy Baby (2:53)
16. After You've Gone (3:05)
17. Love (Your Spell Is Everywhere) (3:22)
18. Love Me (3:23)
19. El Rado Scuffle (2:28)
20. Deep Trouble (2:50)
21. Cryin' for the Carolines (3:37)
22. Have a Little Faith in Me (3:15)
23. Should I? (2:32)
24. I'm Following You (2:35)

Состав:
  • Johnny Alix     Drums
  • May Alix     Vocals
  • Junie C. Cobb     Banjo, Guitar
  • Zinky Cohn     Piano
  • Wilbur Gorham     Banjo, Guitar
  • George Mitchell     Cornet
  • Bill Newton     Bowed Bass
  • Jimmie Noone     Clarinet, Composer, Director, Vocals
  • Joe Poston     Clarinet, Sax (Alto), Vocals
  • Anatol Schenker     Liner Notes
  • Elmo Tanner     Vocals
  • Johnny Wells     Drums
  • Fayette Williams     Trombone
Лог создания рипа
Exact Audio Copy V1.0 beta 3 from 29. August 2011
EAC extraction logfile from 15. February 2013, 0:54
Jimmie Noone's Apex Club Orchestra / 1929-1930
Used drive  : HL-DT-STDVDRAM GT20N   Adapter: 2  ID: 0
Read mode               : Secure
Utilize accurate stream : Yes
Defeat audio cache      : Yes
Make use of C2 pointers : No
Read offset correction                      : 667
Overread into Lead-In and Lead-Out          : No
Fill up missing offset samples with silence : Yes
Delete leading and trailing silent blocks   : No
Null samples used in CRC calculations       : Yes
Used interface                              : Native Win32 interface for Win NT & 2000
Gap handling                                : Appended to previous track
Used output format              : User Defined Encoder
Selected bitrate                : 1024 kBit/s
Quality                         : High
Add ID3 tag                     : No
Command line compressor         : C:\Program Files (x86)\Exact Audio Copy\Flac\flac.exe
Additional command line options : -8 -V -T "ARTIST=%artist%" -T "TITLE=%title%" -T "ALBUM=%albumtitle%" -T "DATE=%year%" -T "TRACKNUMBER=%tracknr%" -T "GENRE=%genre%" -T "PERFORMER=%albuminterpret%" -T "COMPOSER=%composer%" %haslyrics%--tag-from-file=LYRICS="%lyricsfile%"%haslyrics% -T "ALBUMARTIST=%albumartist%" -T "DISCNUMBER=%cdnumber%" -T "TOTALDISCS=%totalcds%" -T "TOTALTRACKS=%numtracks%" -T "COMMENT=%comment%" %source% -o %dest%
TOC of the extracted CD
     Track |   Start  |  Length  | Start sector | End sector
    ---------------------------------------------------------
        1  |  0:00.32 |  3:22.05 |        32    |    15186
        2  |  3:22.37 |  3:12.48 |     15187    |    29634
        3  |  6:35.10 |  3:29.22 |     29635    |    45331
        4  | 10:04.32 |  3:07.50 |     45332    |    59406
        5  | 13:12.07 |  2:57.53 |     59407    |    72734
        6  | 16:09.60 |  3:21.00 |     72735    |    87809
        7  | 19:30.60 |  3:16.32 |     87810    |   102541
        8  | 22:47.17 |  2:43.23 |    102542    |   114789
        9  | 25:30.40 |  3:10.62 |    114790    |   129101
       10  | 28:41.27 |  3:17.20 |    129102    |   143896
       11  | 31:58.47 |  2:59.23 |    143897    |   157344
       12  | 34:57.70 |  2:50.17 |    157345    |   170111
       13  | 37:48.12 |  3:15.48 |    170112    |   184784
       14  | 41:03.60 |  3:22.40 |    184785    |   199974
       15  | 44:26.25 |  2:53.30 |    199975    |   212979
       16  | 47:19.55 |  3:04.67 |    212980    |   226846
       17  | 50:24.47 |  3:22.20 |    226847    |   242016
       18  | 53:46.67 |  3:23.10 |    242017    |   257251
       19  | 57:10.02 |  2:28.05 |    257252    |   268356
       20  | 59:38.07 |  2:49.43 |    268357    |   281074
       21  | 62:27.50 |  3:36.62 |    281075    |   297336
       22  | 66:04.37 |  3:14.43 |    297337    |   311929
       23  | 69:19.05 |  2:32.15 |    311930    |   323344
       24  | 71:51.20 |  2:35.12 |    323345    |   334981
Track  1
     Filename E:\Jimmie Noone - 1929-1930 (1992) [FLAC] {Classics 632}\01 - Jimmie Noone's Apex Club Orchestra - Anything You Want.wav
     Pre-gap length  0:00:02.42
     Peak level 76.5 %
     Extraction speed 2.3 X
     Track quality 100.0 %
     Test CRC F681DBA0
     Copy CRC F681DBA0
     Accurately ripped (confidence 1)  [E76AE548]  (AR v1)
     Copy OK
Track  2
     Filename E:\Jimmie Noone - 1929-1930 (1992) [FLAC] {Classics 632}\02 - Jimmie Noone's Apex Club Orchestra - Birmingham Bertha.wav
     Pre-gap length  0:00:01.73
     Peak level 87.2 %
     Extraction speed 2.6 X
     Track quality 100.0 %
     Test CRC 15A0D0D5
     Copy CRC 15A0D0D5
     Accurately ripped (confidence 1)  [9E614D35]  (AR v1)
     Copy OK
Track  3
     Filename E:\Jimmie Noone - 1929-1930 (1992) [FLAC] {Classics 632}\03 - Jimmie Noone's Apex Club Orchestra - Am I Blue.wav
     Pre-gap length  0:00:01.13
     Peak level 82.6 %
     Extraction speed 2.8 X
     Track quality 100.0 %
     Test CRC 10A0D6B0
     Copy CRC 10A0D6B0
     Accurately ripped (confidence 1)  [994BDEA4]  (AR v1)
     Copy OK
Track  4
     Filename E:\Jimmie Noone - 1929-1930 (1992) [FLAC] {Classics 632}\04 - Jimmie Noone's Apex Club Orchestra - My Daddy Rocks Me (With One Steady Roll).wav
     Pre-gap length  0:00:01.13
     Peak level 98.7 %
     Extraction speed 2.9 X
     Track quality 100.0 %
     Test CRC 54670E06
     Copy CRC 54670E06
     Accurately ripped (confidence 1)  [0DE30CDF]  (AR v1)
     Copy OK
Track  5
     Filename E:\Jimmie Noone - 1929-1930 (1992) [FLAC] {Classics 632}\05 - Jimmie Noone's Apex Club Orchestra - Apex Blues.wav
     Pre-gap length  0:00:01.00
     Peak level 80.2 %
     Extraction speed 3.0 X
     Track quality 100.0 %
     Test CRC 3B77601A
     Copy CRC 3B77601A
     Accurately ripped (confidence 1)  [63E8558D]  (AR v1)
     Copy OK
Track  6
     Filename E:\Jimmie Noone - 1929-1930 (1992) [FLAC] {Classics 632}\06 - Jimmie Noone's Apex Club Orchestra - Ain't Misbehavin'.wav
     Pre-gap length  0:00:01.24
     Peak level 75.1 %
     Extraction speed 3.2 X
     Track quality 100.0 %
     Test CRC 93DD53CA
     Copy CRC 93DD53CA
     Accurately ripped (confidence 1)  [6325C478]  (AR v1)
     Copy OK
Track  7
     Filename E:\Jimmie Noone - 1929-1930 (1992) [FLAC] {Classics 632}\07 - Jimmie Noone's Apex Club Orchestra - That Rhythm Man.wav
     Pre-gap length  0:00:01.30
     Peak level 67.7 %
     Extraction speed 3.3 X
     Track quality 100.0 %
     Test CRC CE8AB5F5
     Copy CRC CE8AB5F5
     Accurately ripped (confidence 1)  [3132CE02]  (AR v1)
     Copy OK
Track  8
     Filename E:\Jimmie Noone - 1929-1930 (1992) [FLAC] {Classics 632}\08 - Jimmie Noone's Apex Club Orchestra - Off-Time.wav
     Pre-gap length  0:00:01.20
     Peak level 75.3 %
     Extraction speed 2.1 X
     Track quality 99.9 %
     Test CRC 42C223BD
     Copy CRC 42C223BD
     Accurately ripped (confidence 1)  [FC145F26]  (AR v1)
     Copy OK
Track  9
     Filename E:\Jimmie Noone - 1929-1930 (1992) [FLAC] {Classics 632}\09 - Jimmie Noone's Apex Club Orchestra - S'posin'.wav
     Pre-gap length  0:00:01.20
     Peak level 60.9 %
     Extraction speed 1.8 X
     Track quality 100.0 %
     Test CRC E08F38E2
     Copy CRC E08F38E2
     Accurately ripped (confidence 1)  [9BE1CC00]  (AR v1)
     Copy OK
Track 10
     Filename E:\Jimmie Noone - 1929-1930 (1992) [FLAC] {Classics 632}\10 - Jimmie Noone's Apex Club Orchestra - True Blue Lou.wav
     Pre-gap length  0:00:01.53
     Peak level 59.7 %
     Extraction speed 1.9 X
     Track quality 100.0 %
     Test CRC A3EA3034
     Copy CRC A3EA3034
     Accurately ripped (confidence 1)  [660E0F6B]  (AR v1)
     Copy OK
Track 11
     Filename E:\Jimmie Noone - 1929-1930 (1992) [FLAC] {Classics 632}\11 - Jimmie Noone's Apex Club Orchestra - Through (How Can You Say We're Through).wav
     Pre-gap length  0:00:01.89
     Peak level 63.0 %
     Extraction speed 1.9 X
     Track quality 100.0 %
     Test CRC AE59ED89
     Copy CRC AE59ED89
     Accurately ripped (confidence 1)  [450F7D60]  (AR v1)
     Copy OK
Track 12
     Filename E:\Jimmie Noone - 1929-1930 (1992) [FLAC] {Classics 632}\12 - Jimmie Noone's Apex Club Orchestra - Satisfied.wav
     Pre-gap length  0:00:01.70
     Peak level 45.3 %
     Extraction speed 1.9 X
     Track quality 100.0 %
     Test CRC 4F9A6008
     Copy CRC 4F9A6008
     Accurately ripped (confidence 1)  [42E4DDDF]  (AR v1)
     Copy OK
Track 13
     Filename E:\Jimmie Noone - 1929-1930 (1992) [FLAC] {Classics 632}\13 - Jimmie Noone's Apex Club Orchestra - I'm Doing What I'm Doin' for Love.wav
     Pre-gap length  0:00:02.06
     Peak level 52.5 %
     Extraction speed 2.1 X
     Track quality 100.0 %
     Test CRC 2A726392
     Copy CRC 2A726392
     Accurately ripped (confidence 1)  [48A52C41]  (AR v1)
     Copy OK
Track 14
     Filename E:\Jimmie Noone - 1929-1930 (1992) [FLAC] {Classics 632}\14 - Jimmie Noone's Apex Club Orchestra - He's a Good Man to Have Around.wav
     Pre-gap length  0:00:01.66
     Suspicious position 0:02:17
     Suspicious position 0:02:19 - 0:03:22
     Peak level 51.1 %
     Extraction speed 0.0 X
     Track quality 89.0 %
     Test CRC E6CB986B
     Copy CRC E3C036B7
     Cannot be verified as accurate (confidence 1)  [01D918ED], AccurateRip returned [C225D39D]  (AR v2)
     Copy finished
Track 15
     Filename E:\Jimmie Noone - 1929-1930 (1992) [FLAC] {Classics 632}\15 - The Savanah Syncopaters - My Melancholy Baby.wav
     Pre-gap length  0:00:01.53
     Suspicious position 0:00:00 - 0:01:14
     Peak level 64.0 %
     Extraction speed 0.0 X
     Track quality 88.5 %
     Test CRC 5AE6D781
     Copy CRC 8E75DD53
     Cannot be verified as accurate (confidence 1)  [9080288A], AccurateRip returned [147B307C]  (AR v2)
     Copy finished
Track 16
     Filename E:\Jimmie Noone - 1929-1930 (1992) [FLAC] {Classics 632}\16 - The Savanah Syncopaters - After You've Gone.wav
     Pre-gap length  0:00:02.10
     Peak level 54.7 %
     Extraction speed 1.9 X
     Track quality 99.9 %
     Test CRC E746843C
     Copy CRC E746843C
     Accurately ripped (confidence 1)  [41FAD08D]  (AR v1)
     Copy OK
Track 17
     Filename E:\Jimmie Noone - 1929-1930 (1992) [FLAC] {Classics 632}\17 - Jimmie's Blue Melody Boys - Love, Your Spell Is Everywhere.wav
     Pre-gap length  0:00:01.20
     Peak level 63.0 %
     Extraction speed 2.3 X
     Track quality 100.0 %
     Test CRC 959D539A
     Copy CRC 959D539A
     Accurately ripped (confidence 1)  [5D1391ED]  (AR v1)
     Copy OK
Track 18
     Filename E:\Jimmie Noone - 1929-1930 (1992) [FLAC] {Classics 632}\18 - Jimmie's Blue Melody Boys - Love Me.wav
     Pre-gap length  0:00:01.89
     Peak level 59.1 %
     Extraction speed 2.3 X
     Track quality 100.0 %
     Test CRC 05592D18
     Copy CRC 05592D18
     Accurately ripped (confidence 1)  [2D4BE902]  (AR v1)
     Copy OK
Track 19
     Filename E:\Jimmie Noone - 1929-1930 (1992) [FLAC] {Classics 632}\19 - Jimmie Noone's Apex Club Orchestra - El Rado Scuffle.wav
     Pre-gap length  0:00:01.56
     Peak level 63.5 %
     Extraction speed 1.8 X
     Track quality 99.9 %
     Test CRC E4A7D90A
     Copy CRC E4A7D90A
     Accurately ripped (confidence 1)  [03ACF29A]  (AR v1)
     Copy OK
Track 20
     Filename E:\Jimmie Noone - 1929-1930 (1992) [FLAC] {Classics 632}\20 - Jimmie Noone's Apex Club Orchestra - Deep Trouble.wav
     Pre-gap length  0:00:01.20
     Peak level 69.5 %
     Extraction speed 2.3 X
     Track quality 100.0 %
     Test CRC 7C53DD6E
     Copy CRC 7C53DD6E
     Accurately ripped (confidence 1)  [EFAAC824]  (AR v1)
     Copy OK
Track 21
     Filename E:\Jimmie Noone - 1929-1930 (1992) [FLAC] {Classics 632}\21 - Jimmie Noone's Apex Club Orchestra - Cryin' for the Carolines.wav
     Pre-gap length  0:00:01.26
     Peak level 63.6 %
     Extraction speed 2.5 X
     Track quality 100.0 %
     Test CRC F11DEF06
     Copy CRC F11DEF06
     Accurately ripped (confidence 1)  [402ACA11]  (AR v1)
     Copy OK
Track 22
     Filename E:\Jimmie Noone - 1929-1930 (1992) [FLAC] {Classics 632}\22 - Jimmie Noone's Apex Club Orchestra - Have a Little Faith in Me.wav
     Pre-gap length  0:00:01.33
     Peak level 62.2 %
     Extraction speed 2.5 X
     Track quality 100.0 %
     Test CRC 169161D2
     Copy CRC 169161D2
     Accurately ripped (confidence 1)  [C0D6E1A8]  (AR v1)
     Copy OK
Track 23
     Filename E:\Jimmie Noone - 1929-1930 (1992) [FLAC] {Classics 632}\23 - Jimmie Noone's Apex Club Orchestra - Should I.wav
     Pre-gap length  0:00:01.24
     Peak level 61.3 %
     Extraction speed 2.4 X
     Track quality 100.0 %
     Test CRC C4564BA7
     Copy CRC C4564BA7
     Accurately ripped (confidence 1)  [3C66094F]  (AR v1)
     Copy OK
Track 24
     Filename E:\Jimmie Noone - 1929-1930 (1992) [FLAC] {Classics 632}\24 - Jimmie Noone's Apex Club Orchestra - I'm Following You.wav
     Pre-gap length  0:00:01.53
     Peak level 89.2 %
     Extraction speed 2.5 X
     Track quality 100.0 %
     Test CRC 778573ED
     Copy CRC 778573ED
     Accurately ripped (confidence 1)  [BDDBA5F9]  (AR v1)
     Copy OK
22 track(s) accurately ripped
 2 track(s) could not be verified as accurate
Some tracks could not be verified as accurate
There were errors
End of status report
==== Log checksum 68038DFE0A64F4CC3CFD3D7030B818FB406C6A405AF4043C968B5B37437CE904 ====
Приватный:
Нет (DHT включён)
Размер:
274.51 Мб (287,841,422 байт) » файлов: 34
Участники:
0 раздают, 0 качают (0 участников всего)
Внешние участники:
1 раздают, 0 качают (1 участников всего) [ Обновить ]
17:56
625
Нет комментариев. Ваш будет первым!