Поиск

1992 Henry "Red" Allen And His Orchestra - 1937-1941 {The Chronological Classics 628} [CD]

1992 Henry "Red" Allen And His Orchestra - 1937-1941 {The Chronological Classics 628} [CD]
Дата записи диска:
19 июля 1937 - 22 июля 1941
Издатель (лейбл):
Номер по каталогу:
CC 628
Носитель:
CD
Тип рипа:
tracks+.cue
Аудиокодек:
FLAC (*.flac)
Битрейт аудио:
lossless
Наличие сканов:
да

01. Till The Clock Strikes Three (06-19-37)  02:30
02. The Merry-Go-Round Broke Down (06-19-37)  02:49
03. You'll Never Go To Heaven (If You Break My Heart) (06-19-37)  02:54
04. The Millers Daughter, Marianne (06-19-37)  02:50
05. I Owe You (09-07-37)  02:41
06. Have You Ever Been In Heaven? (09-07-37)  02:27
07. (Is It) Love Or Infatuation? (09-07-37)  02:37
08. Can I Forget You? (09-07-37)  02:44
09. Down In Jungle Town (05-28-40)  02:50
10. Canal Street Blues (05-28-40)  03:08
11. King Porter Stomp (05-28-40)  02:36
12. Shim Me Sha Wabble (05-28-40)  03:12
13. K. K. Boogie (04-17-41)  03:09
14. Sometimes I'm Happy - Part 1 (04-17-41)  03:17
15. Sometimes I'm Happy - Part 2 (04-17-41)  03:12
16. Ol' Man River (04-17-41)  03:08
17. A Sheridan "Square" (07-22-41)  03:22
18. Siesta At The Fiesta (07-22-41)  03:14
19. Indiana (07-22-41)  03:15
20. Jack The Bellboy (07-22-41)  03:09

Состав:
  • Bernard Addison     Guitar
  • Henry "Red" Allen     Composer, Trumpet, Vocals
  • Lil Armstrong     Piano
  • Harold Arnold     Sax (Tenor)
  • Paul Barbarin     Drums
  • Danny Barker     Guitar
  • Little Sammy Davis     Sax (Tenor)
  • Pops Foster     Bass
  • Edmond Hall     Clarinet
  • J.C. Higginbotham     Trombone
  • Jimmie Hoskins     Drums
  • Ken Kersey     Composer, Piano
  • Billy Kyle     Piano
  • Benny Morton     Trombone
  • Glyn Paque     Clarinet
  • Luis Russell     Piano
  • Anatol Schenker     Liner Notes
  • Zutty Singleton     Drums
  • Tab Smith     Sax (Alto)
  • Alphonse Steele     Drums
  • Billy Taylor, Sr.     Bass
  • John Williams     Bass
Лог создания рипа
Exact Audio Copy V1.0 beta 3 from 29. August 2011

EAC extraction logfile from 12. February 2013, 3:01

Henry "Red" Allen / The Chronological Henry "Red" Allen 1937-1941

Used drive  : HL-DT-STDVDRAM GT20N   Adapter: 2  ID: 0

Read mode               : Secure
Utilize accurate stream : Yes
Defeat audio cache      : Yes
Make use of C2 pointers : No

Read offset correction                      : 667
Overread into Lead-In and Lead-Out          : No
Fill up missing offset samples with silence : Yes
Delete leading and trailing silent blocks   : No
Null samples used in CRC calculations       : Yes
Used interface                              : Native Win32 interface for Win NT & 2000
Gap handling                                : Appended to previous track

Used output format              : User Defined Encoder
Selected bitrate                : 1024 kBit/s
Quality                         : High
Add ID3 tag                     : No
Command line compressor         : C:\Program Files (x86)\Exact Audio Copy\Flac\flac.exe
Additional command line options : -8 -V -T "ARTIST=%artist%" -T "TITLE=%title%" -T "ALBUM=%albumtitle%" -T "DATE=%year%" -T "TRACKNUMBER=%tracknr%" -T "GENRE=%genre%" -T "PERFORMER=%albuminterpret%" -T "COMPOSER=%composer%" %haslyrics%--tag-from-file=LYRICS="%lyricsfile%"%haslyrics% -T "ALBUMARTIST=%albumartist%" -T "DISCNUMBER=%cdnumber%" -T "TOTALDISCS=%totalcds%" -T "TOTALTRACKS=%numtracks%" -T "COMMENT=%comment%" %source% -o %dest%


TOC of the extracted CD

     Track |   Start  |  Length  | Start sector | End sector 
    ---------------------------------------------------------
        1  |  0:00.32 |  2:29.63 |        32    |    11269   
        2  |  2:30.20 |  2:49.07 |     11270    |    23951   
        3  |  5:19.27 |  2:54.15 |     23952    |    37016   
        4  |  8:13.42 |  2:49.45 |     37017    |    49736   
        5  | 11:03.12 |  2:41.25 |     49737    |    61836   
        6  | 13:44.37 |  2:26.48 |     61837    |    72834   
        7  | 16:11.10 |  2:36.72 |     72835    |    84606   
        8  | 18:48.07 |  2:43.55 |     84607    |    96886   
        9  | 21:31.62 |  2:49.45 |     96887    |   109606   
       10  | 24:21.32 |  3:07.73 |    109607    |   123704   
       11  | 27:29.30 |  2:36.07 |    123705    |   135411   
       12  | 30:05.37 |  3:11.40 |    135412    |   149776   
       13  | 33:17.02 |  3:08.40 |    149777    |   163916   
       14  | 36:25.42 |  3:16.73 |    163917    |   178689   
       15  | 39:42.40 |  3:11.60 |    178690    |   193074   
       16  | 42:54.25 |  3:08.12 |    193075    |   207186   
       17  | 46:02.37 |  3:22.20 |    207187    |   222356   
       18  | 49:24.57 |  3:13.45 |    222357    |   236876   
       19  | 52:38.27 |  3:15.33 |    236877    |   251534   
       20  | 55:53.60 |  3:09.22 |    251535    |   265731   


Track  1

     Filename E:\Henry 'Red' Allen - 1937-1941 (1992) [FLAC] {Classics 628}\01 - Henry Allen And His Orchestra - Till The Clock Strikes Three.wav

     Pre-gap length  0:00:02.42

     Peak level 83.7 %
     Extraction speed 2.2 X
     Track quality 100.0 %
     Test CRC 0C4F256E
     Copy CRC 0C4F256E
     Accurately ripped (confidence 1)  [249A4B3E]  (AR v1)
     Copy OK

Track  2

     Filename E:\Henry 'Red' Allen - 1937-1941 (1992) [FLAC] {Classics 628}\02 - Henry Allen And His Orchestra - The Merry-Go-Round Broke Down.wav

     Pre-gap length  0:00:01.06

     Peak level 93.7 %
     Extraction speed 2.4 X
     Track quality 100.0 %
     Test CRC 22427327
     Copy CRC 22427327
     Accurately ripped (confidence 1)  [BEB8007A]  (AR v1)
     Copy OK

Track  3

     Filename E:\Henry 'Red' Allen - 1937-1941 (1992) [FLAC] {Classics 628}\03 - Henry Allen And His Orchestra - You'll Never Got To Heaven (If You Break My Heart).wav

     Pre-gap length  0:00:01.00

     Peak level 94.0 %
     Extraction speed 2.6 X
     Track quality 100.0 %
     Test CRC D3E69535
     Copy CRC D3E69535
     Accurately ripped (confidence 1)  [2BF2B1A9]  (AR v1)
     Copy OK

Track  4

     Filename E:\Henry 'Red' Allen - 1937-1941 (1992) [FLAC] {Classics 628}\04 - Henry Allen And His Orchestra - The Miller's daugther, Marianne.wav

     Pre-gap length  0:00:00.73

     Peak level 99.9 %
     Extraction speed 2.7 X
     Track quality 100.0 %
     Test CRC A38BB86C
     Copy CRC A38BB86C
     Accurately ripped (confidence 1)  [8F7F2A0A]  (AR v1)
     Copy OK

Track  5

     Filename E:\Henry 'Red' Allen - 1937-1941 (1992) [FLAC] {Classics 628}\05 - Henry Allen And His Orchestra - I Owe You.wav

     Pre-gap length  0:00:00.76

     Peak level 82.1 %
     Extraction speed 1.8 X
     Track quality 99.9 %
     Test CRC B9D0362B
     Copy CRC B9D0362B
     Accurately ripped (confidence 1)  [5781E65D]  (AR v1)
     Copy OK

Track  6

     Filename E:\Henry 'Red' Allen - 1937-1941 (1992) [FLAC] {Classics 628}\06 - Henry Allen And His Orchestra - Have You Ever Been In Heaven.wav

     Pre-gap length  0:00:01.16

     Peak level 93.3 %
     Extraction speed 1.4 X
     Track quality 100.0 %
     Test CRC 7FE4E9F1
     Copy CRC 7FE4E9F1
     Accurately ripped (confidence 1)  [770C3516]  (AR v1)
     Copy OK

Track  7

     Filename E:\Henry 'Red' Allen - 1937-1941 (1992) [FLAC] {Classics 628}\07 - Henry Allen And His Orchestra - (Is It) Love Or Infatuation.wav

     Pre-gap length  0:00:01.00

     Peak level 89.5 %
     Extraction speed 1.5 X
     Track quality 100.0 %
     Test CRC C828A58C
     Copy CRC C828A58C
     Accurately ripped (confidence 1)  [5B7325CE]  (AR v1)
     Copy OK

Track  8

     Filename E:\Henry 'Red' Allen - 1937-1941 (1992) [FLAC] {Classics 628}\08 - Henry Allen And His Orchestra - Can I Forget You.wav

     Pre-gap length  0:00:01.00

     Peak level 81.2 %
     Extraction speed 1.6 X
     Track quality 100.0 %
     Test CRC E3F75DB9
     Copy CRC E3F75DB9
     Accurately ripped (confidence 1)  [A697B233]  (AR v1)
     Copy OK

Track  9

     Filename E:\Henry 'Red' Allen - 1937-1941 (1992) [FLAC] {Classics 628}\09 - Henry Allen And His Orchestra - DOWN IN JUNGLE TOWN.wav

     Pre-gap length  0:00:01.13

     Peak level 99.7 %
     Extraction speed 1.7 X
     Track quality 100.0 %
     Test CRC 98F904B9
     Copy CRC 98F904B9
     Accurately ripped (confidence 1)  [251C393C]  (AR v1)
     Copy OK

Track 10

     Filename E:\Henry 'Red' Allen - 1937-1941 (1992) [FLAC] {Classics 628}\10 - Henry Allen And His Orchestra - Canal Street Blues.wav

     Pre-gap length  0:00:00.56

     Peak level 88.1 %
     Extraction speed 1.8 X
     Track quality 100.0 %
     Test CRC D1FD187D
     Copy CRC D1FD187D
     Accurately ripped (confidence 1)  [1039896A]  (AR v1)
     Copy OK

Track 11

     Filename E:\Henry 'Red' Allen - 1937-1941 (1992) [FLAC] {Classics 628}\11 - Zutty Singleton And His Orchestra - King Porter Stomp.wav

     Pre-gap length  0:00:01.24

     Peak level 99.9 %
     Extraction speed 1.8 X
     Track quality 100.0 %
     Test CRC F3C6A0C1
     Copy CRC F3C6A0C1
     Accurately ripped (confidence 1)  [CA02ECC0]  (AR v1)
     Copy OK

Track 12

     Filename E:\Henry 'Red' Allen - 1937-1941 (1992) [FLAC] {Classics 628}\12 - Zutty Singleton And His Orchestra - Shim Me Sha Wabble.wav

     Pre-gap length  0:00:01.80

     Peak level 88.6 %
     Extraction speed 1.7 X
     Track quality 99.9 %
     Test CRC 939259B7
     Copy CRC 939259B7
     Accurately ripped (confidence 1)  [7ED8E7EE]  (AR v1)
     Copy OK

Track 13

     Filename E:\Henry 'Red' Allen - 1937-1941 (1992) [FLAC] {Classics 628}\13 - Henry Allen And His Orchestra - K. K. Boogie.wav

     Pre-gap length  0:00:01.02

     Peak level 97.0 %
     Extraction speed 1.7 X
     Track quality 99.9 %
     Test CRC A9599E6D
     Copy CRC A9599E6D
     Accurately ripped (confidence 1)  [12FF5681]  (AR v1)
     Copy OK

Track 14

     Filename E:\Henry 'Red' Allen - 1937-1941 (1992) [FLAC] {Classics 628}\14 - Henry Allen And His Orchestra - Sometimes I'm Happy - Part 1.wav

     Pre-gap length  0:00:00.86

     Peak level 97.5 %
     Extraction speed 2.1 X
     Track quality 100.0 %
     Test CRC 70949FF5
     Copy CRC 70949FF5
     Accurately ripped (confidence 1)  [3964E03F]  (AR v1)
     Copy OK

Track 15

     Filename E:\Henry 'Red' Allen - 1937-1941 (1992) [FLAC] {Classics 628}\15 - Henry Allen And His Orchestra - Sometimes I'm Happy - Part 2.wav

     Pre-gap length  0:00:01.04

     Peak level 92.5 %
     Extraction speed 2.1 X
     Track quality 100.0 %
     Test CRC 4C9E9CEC
     Copy CRC 4C9E9CEC
     Accurately ripped (confidence 1)  [2961A34E]  (AR v1)
     Copy OK

Track 16

     Filename E:\Henry 'Red' Allen - 1937-1941 (1992) [FLAC] {Classics 628}\16 - Henry Allen And His Orchestra - Ol' Man River.wav

     Pre-gap length  0:00:00.86

     Peak level 97.7 %
     Extraction speed 2.1 X
     Track quality 100.0 %
     Test CRC 47246945
     Copy CRC 47246945
     Accurately ripped (confidence 1)  [0B518FB8]  (AR v1)
     Copy OK

Track 17

     Filename E:\Henry 'Red' Allen - 1937-1941 (1992) [FLAC] {Classics 628}\17 - Henry Allen And His Orchestra - A Sheridan ''Square''.wav

     Pre-gap length  0:00:01.02

     Peak level 95.1 %
     Extraction speed 2.3 X
     Track quality 100.0 %
     Test CRC B4C66FE2
     Copy CRC B4C66FE2
     Accurately ripped (confidence 1)  [A0917FD8]  (AR v1)
     Copy OK

Track 18

     Filename E:\Henry 'Red' Allen - 1937-1941 (1992) [FLAC] {Classics 628}\18 - Henry Allen And His Orchestra - Siesta At The Fiesta.wav

     Pre-gap length  0:00:01.29

     Peak level 97.5 %
     Extraction speed 2.3 X
     Track quality 100.0 %
     Test CRC 52215CBF
     Copy CRC 52215CBF
     Accurately ripped (confidence 1)  [06FA1B33]  (AR v1)
     Copy OK

Track 19

     Filename E:\Henry 'Red' Allen - 1937-1941 (1992) [FLAC] {Classics 628}\19 - Henry Allen And His Orchestra - Indiana.wav

     Pre-gap length  0:00:01.22

     Peak level 99.3 %
     Extraction speed 2.3 X
     Track quality 100.0 %
     Test CRC F98C54AB
     Copy CRC F98C54AB
     Accurately ripped (confidence 1)  [BF48000B]  (AR v1)
     Copy OK

Track 20

     Filename E:\Henry 'Red' Allen - 1937-1941 (1992) [FLAC] {Classics 628}\20 - Henry Allen And His Orchestra - Jack The Bellboy.wav

     Pre-gap length  0:00:01.30

     Peak level 99.9 %
     Extraction speed 2.4 X
     Track quality 100.0 %
     Test CRC 51949C15
     Copy CRC 51949C15
     Accurately ripped (confidence 1)  [F17CB6BC]  (AR v1)
     Copy OK


All tracks accurately ripped

No errors occurred

End of status report

==== Log checksum 61AC8FBDD9574BCD8F20EFB80BB3F7C9D5C3BA4317D3D194EE7307DB33719304 ====
Приватный:
Да (DHT отключён)
Размер:
200.50 Мб (210,244,614 байт) » файлов: 32
Участники:
0 раздают, 0 качают (0 участников всего)
Внешние участники:
--- [ Обновить ]
14:43
523
Нет комментариев. Ваш будет первым!