Поиск

1992 Carmen McRae - Black Magic "Live" {Jazz Hour JHR 73558} [CD]

1992 Carmen McRae - Black Magic "Live" {Jazz Hour JHR 73558} [CD]
Стили:
Треклист:

01. Black Magic (Arlen-Mercer) - 3:50
02. Last Winter (Wonder) - 4:29
03. New York State of Mind (Joel) - 5:18
04. Underneath the Apple Tree (Franks) - 4:18
05. Thou Swell (Rodgers-Hart) - 1:14
06. Send in the Clowns (Sondheim) - 4:38
07. I Just Can't Wait to See You (Franklin) - 4:06
08. How Long Has This Been Going On? (Gershwin-Gershwin) - 4:48
09. If I Were a Bell (Loesser) - 1:45
10. My Foolish Heart (Washington-Young) - 7:19
11. Secret Love (Webster-Fain) - 4:13
12. Body and Soul (Eyton-Sour-Heyman-Green) - 6:05
13. 'Tis Autumn (Nemo-Fox) - 4:37
14. Bye Bye Blackbird (Anderson) - 2:26
15. The End of a Beautiful Friendship (Duke) - 3:02

Состав:
  • Carmen McRae — vocals

with
#1-11:

  • Marshall Otwell — piano
  • Jim Anderson — bass
  • Mark Pulice — drums

Recorded live at Bubba's Restaurant, Fort Lauderdale, FL on January 17, 1981.
#12-15:

Recorded live in Cannes on January 22, 1979.

Доп. инфо:

Носитель: CD
Страна-производитель диска (релиза): EU
Год издания: 1992
Издатель (лейбл): Jazz Hour
Номер по каталогу: JHR 73558
Аудиокодек: FLAC (*.flac)
Тип рипа: tracks+.cue
Битрейт аудио: lossless
Продолжительность: 01:02:08
Источник: redacted
Наличие сканов в содержимом раздачи: да

Лог создания рипа
Exact Audio Copy V1.0 beta 4 from 7. December 2014

EAC extraction logfile from 20. July 2016, 19:18

Carmen McRae / Black Magic 'Live'

Used drive  : PLEXTOR DVDR   PX-L890SA   Adapter: 1  ID: 0

Read mode               : Secure
Utilize accurate stream : Yes
Defeat audio cache      : Yes
Make use of C2 pointers : No

Read offset correction                      : 6
Overread into Lead-In and Lead-Out          : No
Fill up missing offset samples with silence : Yes
Delete leading and trailing silent blocks   : No
Null samples used in CRC calculations       : Yes
Used interface                              : Native Win32 interface for Win NT & 2000
Gap handling                                : Appended to previous track

Used output format              : User Defined Encoder
Selected bitrate                : 128 kBit/s
Quality                         : High
Add ID3 tag                     : No
Command line compressor         : C:\Program Files (x86)\Exact Audio Copy\Flac\flac.exe
Additional command line options : -8 -V -T "ARTIST=%artist%" -T "TITLE=%title%" -T "ALBUM=%albumtitle%" -T "DATE=%year%" -T "TRACKNUMBER=%tracknr%" -T "TOTALTRACKS=%numtracks%" -T "GENRE=%genre%" -T "ALBUM ARTIST=%albumartist%" -T "ALBUMARTIST=%albumartist%" -T "COMPOSER=%albumcomposer%" -T "PERFORMER=%albuminterpret%" %haslyrics%-T "LYRICS=%lyrics%"%haslyrics% -T "COMMENT=EAC V1.0 beta 2, Secure Mode, Test & Copy, AccurateRip, FLAC -8" %source%

TOC of the extracted CD

     Track |   Start  |  Length  | Start sector | End sector
    ---------------------------------------------------------
        1  |  0:00.32 |  3:50.13 |        32    |    17294
        2  |  3:50.45 |  4:29.30 |     17295    |    37499
        3  |  8:20.00 |  5:18.07 |     37500    |    61356
        4  | 13:38.07 |  4:17.58 |     61357    |    80689
        5  | 17:55.65 |  1:14.05 |     80690    |    86244
        6  | 19:09.70 |  4:38.37 |     86245    |   107131
        7  | 23:48.32 |  4:06.10 |    107132    |   125591
        8  | 27:54.42 |  4:47.48 |    125592    |   147164
        9  | 32:42.15 |  1:45.07 |    147165    |   155046
       10  | 34:27.22 |  7:18.50 |    155047    |   187946
       11  | 41:45.72 |  4:13.35 |    187947    |   206956
       12  | 45:59.32 |  6:05.10 |    206957    |   234341
       13  | 52:04.42 |  4:36.65 |    234342    |   255106
       14  | 56:41.32 |  2:25.50 |    255107    |   266031
       15  | 59:07.07 |  3:01.68 |    266032    |   279674

Track  1

     Filename K:\Carmen McRae\Carmen McRae - Black Magic Live (1981 & 1979) [Flac] {1995 JHR 73558}\01 - Black Magic.wav

     Pre-gap length  0:00:02.42

     Peak level 88.1 %
     Extraction speed 3.3 X
     Track quality 100.0 %
     Test CRC 3463B790
     Copy CRC 3463B790
     Accurately ripped (confidence 1)  [EEF90302]  (AR v2)
     Copy OK

Track  2

     Filename K:\Carmen McRae\Carmen McRae - Black Magic Live (1981 & 1979) [Flac] {1995 JHR 73558}\02 - Last Winter.wav

     Pre-gap length  0:00:02.60

     Peak level 75.5 %
     Extraction speed 3.8 X
     Track quality 100.0 %
     Test CRC 966C3D2A
     Copy CRC 966C3D2A
     Accurately ripped (confidence 1)  [A775104D]  (AR v2)
     Copy OK

Track  3

     Filename K:\Carmen McRae\Carmen McRae - Black Magic Live (1981 & 1979) [Flac] {1995 JHR 73558}\03 - New York State of Mind.wav

     Peak level 86.2 %
     Extraction speed 4.3 X
     Track quality 100.0 %
     Test CRC FD31829D
     Copy CRC FD31829D
     Accurately ripped (confidence 1)  [7DF46501]  (AR v2)
     Copy OK

Track  4

     Filename K:\Carmen McRae\Carmen McRae - Black Magic Live (1981 & 1979) [Flac] {1995 JHR 73558}\04 - Underneath the Apple Tree.wav

     Pre-gap length  0:00:01.22

     Peak level 70.1 %
     Extraction speed 4.5 X
     Track quality 100.0 %
     Test CRC 8884AE3C
     Copy CRC 8884AE3C
     Accurately ripped (confidence 1)  [5E4DC9C9]  (AR v2)
     Copy OK

Track  5

     Filename K:\Carmen McRae\Carmen McRae - Black Magic Live (1981 & 1979) [Flac] {1995 JHR 73558}\05 - Thou Swell.wav

     Peak level 83.9 %
     Extraction speed 3.5 X
     Track quality 100.0 %
     Test CRC BAC9B091
     Copy CRC BAC9B091
     Accurately ripped (confidence 1)  [0F62849D]  (AR v2)
     Copy OK

Track  6

     Filename K:\Carmen McRae\Carmen McRae - Black Magic Live (1981 & 1979) [Flac] {1995 JHR 73558}\06 - Send in The Clowns.wav

     Pre-gap length  0:00:01.50

     Peak level 77.6 %
     Extraction speed 4.9 X
     Track quality 100.0 %
     Test CRC F9D3432D
     Copy CRC F9D3432D
     Accurately ripped (confidence 1)  [5AE12462]  (AR v2)
     Copy OK

Track  7

     Filename K:\Carmen McRae\Carmen McRae - Black Magic Live (1981 & 1979) [Flac] {1995 JHR 73558}\07 - I Just Can't Wait to See You.wav

     Pre-gap length  0:00:01.33

     Peak level 67.4 %
     Extraction speed 5.1 X
     Track quality 100.0 %
     Test CRC 30C56558
     Copy CRC 30C56558
     Accurately ripped (confidence 1)  [78512F28]  (AR v2)
     Copy OK

Track  8

     Filename K:\Carmen McRae\Carmen McRae - Black Magic Live (1981 & 1979) [Flac] {1995 JHR 73558}\08 - How Long Has This Been Going On.wav

     Pre-gap length  0:00:01.42

     Peak level 62.9 %
     Extraction speed 5.5 X
     Track quality 100.0 %
     Test CRC 5B3841FA
     Copy CRC 5B3841FA
     Accurately ripped (confidence 1)  [94BDACE4]  (AR v2)
     Copy OK

Track  9

     Filename K:\Carmen McRae\Carmen McRae - Black Magic Live (1981 & 1979) [Flac] {1995 JHR 73558}\09 - If I Were a Bell.wav

     Peak level 76.1 %
     Extraction speed 4.8 X
     Track quality 100.0 %
     Test CRC 092C5FF7
     Copy CRC 092C5FF7
     Accurately ripped (confidence 1)  [4ADB4393]  (AR v2)
     Copy OK

Track 10

     Filename K:\Carmen McRae\Carmen McRae - Black Magic Live (1981 & 1979) [Flac] {1995 JHR 73558}\10 - My Foolish Heart.wav

     Pre-gap length  0:00:01.66

     Peak level 71.3 %
     Extraction speed 6.2 X
     Track quality 100.0 %
     Test CRC 3B88FF35
     Copy CRC 3B88FF35
     Accurately ripped (confidence 1)  [C1E55B0C]  (AR v2)
     Copy OK

Track 11

     Filename K:\Carmen McRae\Carmen McRae - Black Magic Live (1981 & 1979) [Flac] {1995 JHR 73558}\11 - Secret Love.wav

     Pre-gap length  0:00:02.56

     Peak level 75.5 %
     Extraction speed 6.1 X
     Track quality 100.0 %
     Test CRC ABC06D9E
     Copy CRC ABC06D9E
     Accurately ripped (confidence 1)  [A08DC59F]  (AR v2)
     Copy OK

Track 12

     Filename K:\Carmen McRae\Carmen McRae - Black Magic Live (1981 & 1979) [Flac] {1995 JHR 73558}\12 - Body and Soul.wav

     Pre-gap length  0:00:02.36

     Peak level 54.7 %
     Extraction speed 6.7 X
     Track quality 100.0 %
     Test CRC 67F2E0AA
     Copy CRC 67F2E0AA
     Accurately ripped (confidence 1)  [1602A26C]  (AR v2)
     Copy OK

Track 13

     Filename K:\Carmen McRae\Carmen McRae - Black Magic Live (1981 & 1979) [Flac] {1995 JHR 73558}\13 - 'Tis Autumn.wav

     Peak level 44.5 %
     Extraction speed 5.5 X
     Track quality 99.9 %
     Test CRC 06BA2F0C
     Copy CRC 06BA2F0C
     Accurately ripped (confidence 1)  [A7F2B33C]  (AR v2)
     Copy OK

Track 14

     Filename K:\Carmen McRae\Carmen McRae - Black Magic Live (1981 & 1979) [Flac] {1995 JHR 73558}\14 - Bye Bye Blackbird.wav

     Pre-gap length  0:00:01.46

     Peak level 53.8 %
     Extraction speed 6.1 X
     Track quality 100.0 %
     Test CRC EAC30C3F
     Copy CRC EAC30C3F
     Accurately ripped (confidence 1)  [46B6550B]  (AR v2)
     Copy OK

Track 15

     Filename K:\Carmen McRae\Carmen McRae - Black Magic Live (1981 & 1979) [Flac] {1995 JHR 73558}\15 - The End of a Beautiful Friendship.wav

     Peak level 36.5 %
     Extraction speed 5.0 X
     Track quality 99.9 %
     Test CRC 2F1463C6
     Copy CRC 2F1463C6
     Accurately ripped (confidence 1)  [B097EF57]  (AR v2)
     Copy OK

All tracks accurately ripped

No errors occurred

End of status report

---- CUETools DB Plugin V2.1.4

[CTDB TOCID: A_qcMQqkOVEA07oWAhndPyaCXAA-] found
Submit result: A_qcMQqkOVEA07oWAhndPyaCXAA- has been confirmed
Track | CTDB Status
  1   | (1/1) Accurately ripped
  2   | (1/1) Accurately ripped
  3   | (1/1) Accurately ripped
  4   | (1/1) Accurately ripped
  5   | (1/1) Accurately ripped
  6   | (1/1) Accurately ripped
  7   | (1/1) Accurately ripped
  8   | (1/1) Accurately ripped
  9   | (1/1) Accurately ripped
 10   | (1/1) Accurately ripped
 11   | (1/1) Accurately ripped
 12   | (1/1) Accurately ripped
 13   | (1/1) Accurately ripped
 14   | (1/1) Accurately ripped
 15   | (1/1) Accurately ripped

==== Log checksum E9281E94869A4A8286ED160A402AB8387DC77BE27FAFFB6CC0F86AB1B0CEB7F0 ====
Содержание индексной карты (.CUE)
REM GENRE Jazz
REM DATE 1992
REM DISCID BB0E910F
REM COMMENT "ExactAudioCopy v1.0b4"
PERFORMER "Carmen McRae"
TITLE "Black Magic 'Live'"
FILE "01 - Black Magic.wav" WAVE
  TRACK 01 AUDIO
    TITLE "Black Magic"
    PERFORMER "Carmen McRae"
    PREGAP 00:00:32
    INDEX 01 00:00:00
  TRACK 02 AUDIO
    TITLE "Last Winter"
    PERFORMER "Carmen McRae"
    INDEX 00 03:47:43
FILE "02 - Last Winter.wav" WAVE
    INDEX 01 00:00:00
FILE "03 - New York State of Mind.wav" WAVE
  TRACK 03 AUDIO
    TITLE "New York State of Mind"
    PERFORMER "Carmen McRae"
    INDEX 01 00:00:00
  TRACK 04 AUDIO
    TITLE "Underneath the Apple Tree"
    PERFORMER "Carmen McRae"
    INDEX 00 05:16:65
FILE "04 - Underneath the Apple Tree.wav" WAVE
    INDEX 01 00:00:00
FILE "05 - Thou Swell.wav" WAVE
  TRACK 05 AUDIO
    TITLE "Thou Swell"
    PERFORMER "Carmen McRae"
    INDEX 01 00:00:00
  TRACK 06 AUDIO
    TITLE "Send in the Clowns"
    PERFORMER "Carmen McRae"
    INDEX 00 01:12:42
FILE "06 - Send in the Clowns.wav" WAVE
    INDEX 01 00:00:00
  TRACK 07 AUDIO
    TITLE "I Just Can't Wait to See You"
    PERFORMER "Carmen McRae"
    INDEX 00 04:37:12
FILE "07 - I Just Can't Wait to See You.wav" WAVE
    INDEX 01 00:00:00
  TRACK 08 AUDIO
    TITLE "How Long Has This Been Going On?"
    PERFORMER "Carmen McRae"
    INDEX 00 04:04:53
FILE "08 - How Long Has This Been Going On.wav" WAVE
    INDEX 01 00:00:00
FILE "09 - If I Were a Bell.wav" WAVE
  TRACK 09 AUDIO
    TITLE "If I Were a Bell"
    PERFORMER "Carmen McRae"
    INDEX 01 00:00:00
  TRACK 10 AUDIO
    TITLE "My Foolish Heart"
    PERFORMER "Carmen McRae"
    INDEX 00 01:43:32
FILE "10 - My Foolish Heart.wav" WAVE
    INDEX 01 00:00:00
  TRACK 11 AUDIO
    TITLE "Secret Love"
    PERFORMER "Carmen McRae"
    INDEX 00 07:16:08
FILE "11 - Secret Love.wav" WAVE
    INDEX 01 00:00:00
  TRACK 12 AUDIO
    TITLE "Body and Soul"
    PERFORMER "Carmen McRae"
    INDEX 00 04:11:08
FILE "12 - Body and Soul.wav" WAVE
    INDEX 01 00:00:00
FILE "13 - 'Tis Autumn.wav" WAVE
  TRACK 13 AUDIO
    TITLE "'Tis Autumn"
    PERFORMER "Carmen McRae"
    INDEX 01 00:00:00
  TRACK 14 AUDIO
    TITLE "Bye Bye Blackbird"
    PERFORMER "Carmen McRae"
    INDEX 00 04:35:30
FILE "14 - Bye Bye Blackbird.wav" WAVE
    INDEX 01 00:00:00
FILE "15 - The End of a Beautiful Friendship.wav" WAVE
  TRACK 15 AUDIO
    TITLE "The End of a Beautiful Friendship"
    PERFORMER "Carmen McRae"
    INDEX 01 00:00:00
Лог проверки качества
[CUETools log; Date: 13.02.2019 22:53:15; Version: 2.1.6]
Pregap length 00:00:32.
[CTDB TOCID: A_qcMQqkOVEA07oWAhndPyaCXAA-] found.
Track | CTDB Status
  1   | (3/3) Accurately ripped
  2   | (3/3) Accurately ripped
  3   | (3/3) Accurately ripped
  4   | (3/3) Accurately ripped
  5   | (3/3) Accurately ripped
  6   | (3/3) Accurately ripped
  7   | (3/3) Accurately ripped
  8   | (3/3) Accurately ripped
  9   | (3/3) Accurately ripped
 10   | (3/3) Accurately ripped
 11   | (3/3) Accurately ripped
 12   | (3/3) Accurately ripped
 13   | (3/3) Accurately ripped
 14   | (3/3) Accurately ripped
 15   | (3/3) Accurately ripped
[AccurateRip ID: 00224db3-018646fa-bb0e910f] found.
Track   [  CRC   |   V2   ] Status
 01     [5059814f|eef90302] (1+1/2) Accurately ripped
 02     [ff59e6f7|a775104d] (1+1/2) Accurately ripped
 03     [7fe00558|7df46501] (1+1/2) Accurately ripped
 04     [47ce357c|5e4dc9c9] (1+1/2) Accurately ripped
 05     [39ae49f4|0f62849d] (1+1/2) Accurately ripped
 06     [66f49894|5ae12462] (1+1/2) Accurately ripped
 07     [8bf2ed9d|78512f28] (1+1/2) Accurately ripped
 08     [1ba6d490|94bdace4] (1+1/2) Accurately ripped
 09     [c5f8cdcd|4adb4393] (1+1/2) Accurately ripped
 10     [0f2e7b04|c1e55b0c] (1+1/2) Accurately ripped
 11     [519fb1bf|a08dc59f] (1+1/2) Accurately ripped
 12     [080c9275|1602a26c] (1+1/2) Accurately ripped
 13     [34f22e26|a7f2b33c] (1+1/2) Accurately ripped
 14     [9a896862|46b6550b] (1+1/2) Accurately ripped
 15     [1c33ffee|b097ef57] (1+1/2) Accurately ripped

Track Peak [ CRC32  ] [W/O NULL] [  LOG   ]
 --   88,1 [318DC65E] [534E101A]
 01   88,1 [3463B790] [4B9531E2]   CRC32
 02   75,5 [966C3D2A] [57C5A9C7]   CRC32
 03   86,2 [FD31829D] [6DE87611]   CRC32
 04   70,1 [8884AE3C] [207B4CB2]   CRC32
 05   83,9 [BAC9B091] [4A948926]   CRC32
 06   77,6 [F9D3432D] [B73EFE94]   CRC32
 07   67,4 [30C56558] [E5B739A0]   CRC32
 08   62,9 [5B3841FA] [D920B856]   CRC32
 09   76,1 [092C5FF7] [D135B3A1]   CRC32
 10   71,3 [3B88FF35] [F4E9A9DB]   CRC32
 11   75,5 [ABC06D9E] [7076D72A]   CRC32
 12   54,7 [67F2E0AA] [DFC73FFE]   CRC32
 13   44,5 [06BA2F0C] [20C688C0]   CRC32
 14   53,8 [EAC30C3F] [83D2385F]   CRC32
 15   36,5 [2F1463C6] [57145451]   CRC32
По всем вопросам пишите личное сообщение пользователю M0p94ok.
19:37
454
Нет комментариев. Ваш будет первым!