Поиск

1991 Nick Brignola - What it Takes {Reservoir Music} [CD]

1991 Nick Brignola - What it Takes {Reservoir Music} [CD]
Стили:
Издатель (лейбл):
Треклист:
01. Star Eyes [06:29]
02. Asia [08:15]
03. Au Privane [06:58]
04. In A Sentimental Mood [09:50]
05. Voyage [06:21]
06. The Sweetwater Strut [10:50]
07. Sail Away [06:21]
08. Cotton Tail [06:59]
Доп. инфо:

Носитель: CD
Страна-производитель диска (релиза): USA
Год издания: 1991
Издатель (лейбл): Reservoir
Номер по каталогу: RSR CD 117
Страна исполнителя (группы): USA
Аудиокодек: FLAC (*.flac)
Тип рипа: tracks+.cue
Битрейт аудио: lossless
Продолжительность: 01:02:07
Источник (релизер): сеть
Наличие сканов в содержимом раздачи: нет

Лог создания рипа
Exact Audio Copy V1.0 beta 3 from 29. August 2011
EAC extraction logfile from 11. October 2014, 16:50
Nick Brignola / What It Takes
Used drive  : ATAPI   iHAS124   Y   Adapter: 0  ID: 0
Read mode               : Secure
Utilize accurate stream : Yes
Defeat audio cache      : Yes
Make use of C2 pointers : No
Read offset correction                      : 48
Overread into Lead-In and Lead-Out          : No
Fill up missing offset samples with silence : Yes
Delete leading and trailing silent blocks   : No
Null samples used in CRC calculations       : Yes
Used interface                              : Native Win32 interface for Win NT & 2000
Gap handling                                : Appended to previous track
Used output format              : User Defined Encoder
Selected bitrate                : 896 kBit/s
Quality                         : High
Add ID3 tag                     : No
Command line compressor         : C:\Program Files (x86)\Exact Audio Copy\FLAC\FLAC.EXE
Additional command line options : -8 -V -T "ARTIST=%artist%" -T "TITLE=%title%" -T "ALBUM=%albumtitle%" -T "DATE=%year%" -T "TRACKNUMBER=%tracknr%" -T "GENRE=%genre%" -T "PERFORMER=%albuminterpret%" -T "COMPOSER=%composer%" %haslyrics%--tag-from-file=LYRICS="%lyricsfile%"%haslyrics% -T "ALBUMARTIST=%albumartist%" -T "DISCNUMBER=%cdnumber%" -T "TOTALDISCS=%totalcds%" -T "TOTALTRACKS=%numtracks%" -T "COMMENT=%comment%" %source% -o %dest%
TOC of the extracted CD
     Track |   Start  |  Length  | Start sector | End sector
    ---------------------------------------------------------
        1  |  0:00.37 |  6:32.63 |        37    |    29499
        2  |  6:33.25 |  8:17.00 |     29500    |    66774
        3  | 14:50.25 |  7:01.00 |     66775    |    98349
        4  | 21:51.25 |  9:53.00 |     98350    |   142824
        5  | 31:44.25 |  6:23.00 |    142825    |   171549
        6  | 38:07.25 | 10:51.37 |    171550    |   220411
        7  | 48:58.62 |  6:23.38 |    220412    |   249174
        8  | 55:22.25 |  6:59.50 |    249175    |   280649
Track  1
     Filename H:\What.CD Recent Rips\Nick Brignola - What It Takes (FLAC)\01 - Star Eyes.wav
     Pre-gap length  0:00:02.49
     Peak level 95.3 %
     Extraction speed 2.8 X
     Track quality 100.0 %
     Test CRC E48616C4
     Copy CRC E48616C4
     Cannot be verified as accurate (confidence 1)  [10299C3F], AccurateRip returned [89192EEA]  (AR v2)
     Copy OK
Track  2
     Filename H:\What.CD Recent Rips\Nick Brignola - What It Takes (FLAC)\02 - Asia.wav
     Pre-gap length  0:00:03.00
     Peak level 95.3 %
     Extraction speed 3.1 X
     Track quality 99.9 %
     Test CRC 43511BB1
     Copy CRC 43511BB1
     Cannot be verified as accurate (confidence 1)  [F2D03615], AccurateRip returned [E4ECE24B]  (AR v2)
     Copy OK
Track  3
     Filename H:\What.CD Recent Rips\Nick Brignola - What It Takes (FLAC)\03 - Au Privane.wav
     Pre-gap length  0:00:01.20
     Peak level 95.3 %
     Extraction speed 3.7 X
     Track quality 100.0 %
     Test CRC 4787DEF9
     Copy CRC 4787DEF9
     Cannot be verified as accurate (confidence 1)  [A9D2E220], AccurateRip returned [546CF819]  (AR v2)
     Copy OK
Track  4
     Filename H:\What.CD Recent Rips\Nick Brignola - What It Takes (FLAC)\04 - In A Sentimental Mood.wav
     Pre-gap length  0:00:02.62
     Peak level 95.3 %
     Extraction speed 4.2 X
     Track quality 100.0 %
     Test CRC A6199A53
     Copy CRC A6199A53
     Cannot be verified as accurate (confidence 1)  [7154F72C], AccurateRip returned [9ACD0EC5]  (AR v2)
     Copy OK
Track  5
     Filename H:\What.CD Recent Rips\Nick Brignola - What It Takes (FLAC)\05 - Voyage.wav
     Pre-gap length  0:00:02.13
     Peak level 95.4 %
     Extraction speed 4.4 X
     Track quality 100.0 %
     Test CRC A3A28DD3
     Copy CRC A3A28DD3
     Cannot be verified as accurate (confidence 1)  [65A64160], AccurateRip returned [768E2A4F]  (AR v2)
     Copy OK
Track  6
     Filename H:\What.CD Recent Rips\Nick Brignola - What It Takes (FLAC)\06 - The Sweetwater Strut.wav
     Pre-gap length  0:00:01.89
     Peak level 95.3 %
     Extraction speed 4.9 X
     Track quality 100.0 %
     Test CRC 45E1DB19
     Copy CRC 45E1DB19
     Cannot be verified as accurate (confidence 1)  [1F2548E1], AccurateRip returned [10BE803A]  (AR v2)
     Copy OK
Track  7
     Filename H:\What.CD Recent Rips\Nick Brignola - What It Takes (FLAC)\07 - Sail Away.wav
     Pre-gap length  0:00:01.22
     Peak level 95.2 %
     Extraction speed 5.1 X
     Track quality 100.0 %
     Test CRC 949DE988
     Copy CRC 949DE988
     Cannot be verified as accurate (confidence 1)  [5CA6234E], AccurateRip returned [114BF91F]  (AR v2)
     Copy OK
Track  8
     Filename H:\What.CD Recent Rips\Nick Brignola - What It Takes (FLAC)\08 - Cotton Tail.wav
     Pre-gap length  0:00:01.76
     Peak level 95.3 %
     Extraction speed 4.9 X
     Track quality 99.9 %
     Test CRC B11A4DFD
     Copy CRC B11A4DFD
     Cannot be verified as accurate (confidence 1)  [05D6B450], AccurateRip returned [FD0AAD33]  (AR v2)
     Copy OK
No tracks could be verified as accurate
You may have a different pressing from the one(s) in the database
No errors occurred
End of status report
==== Log checksum 3591B26D5BE30BFF7C39EDF6B1EE2EAB966CAE2BFDF31B0FA58F86C424A97E08 ====
Содержание индексной карты (.CUE)
REM GENRE Jazz
REM DATE 1991
REM DISCID 6E0E9E08
REM COMMENT "ExactAudioCopy v1.0b3"
CATALOG 0000000000000
PERFORMER "Nick Brignola"
TITLE "What It Takes"
FILE "01 - Star Eyes.wav" WAVE
  TRACK 01 AUDIO
    TITLE "Star Eyes"
    PERFORMER "Nick Brignola"
    PREGAP 00:00:37
    INDEX 01 00:00:00
  TRACK 02 AUDIO
    TITLE "Asia"
    PERFORMER "Nick Brignola"
    INDEX 00 06:29:63
FILE "02 - Asia.wav" WAVE
    INDEX 01 00:00:00
  TRACK 03 AUDIO
    TITLE "Au Privane"
    PERFORMER "Nick Brignola"
    INDEX 00 08:15:60
FILE "03 - Au Privane.wav" WAVE
    INDEX 01 00:00:00
  TRACK 04 AUDIO
    TITLE "In A Sentimental Mood"
    PERFORMER "Nick Brignola"
    INDEX 00 06:58:28
FILE "04 - In A Sentimental Mood.wav" WAVE
    INDEX 01 00:00:00
  TRACK 05 AUDIO
    TITLE "Voyage"
    PERFORMER "Nick Brignola"
    INDEX 00 09:50:65
FILE "05 - Voyage.wav" WAVE
    INDEX 01 00:00:00
  TRACK 06 AUDIO
    TITLE "The Sweetwater Strut"
    PERFORMER "Nick Brignola"
    INDEX 00 06:21:08
FILE "06 - The Sweetwater Strut.wav" WAVE
    INDEX 01 00:00:00
  TRACK 07 AUDIO
    TITLE "Sail Away"
    PERFORMER "Nick Brignola"
    INDEX 00 10:50:20
FILE "07 - Sail Away.wav" WAVE
    INDEX 01 00:00:00
  TRACK 08 AUDIO
    TITLE "Cotton Tail"
    PERFORMER "Nick Brignola"
    INDEX 00 06:21:56
FILE "08 - Cotton Tail.wav" WAVE
    INDEX 01 00:00:00
Приватный:
Нет (DHT включён)
Размер:
431.85 Мб (452,826,757 байт) » файлов: 13
Участники:
0 раздают, 0 качают (0 участников всего)
Внешние участники:
1 раздают, 0 качают (1 участников всего) [ Обновить ]
For power users only: no seeders - write to support@pro-jazz.com. Для power user: нет сидеров - пишите на support@pro-jazz.com.
07:05
146
Нет комментариев. Ваш будет первым!