Поиск

1991 Johnny Dodds - 1926 {The Chronological Classics 589} [CD]

1991 Johnny Dodds - 1926 {The Chronological Classics 589} [CD]
Дата записи диска:
1 мая - 11 декабря 1926
Издатель (лейбл):
Номер по каталогу:
CC589
Носитель:
CD
Тип рипа:
tracks+.cue
Аудиокодек:
FLAC (*.flac)
Битрейт аудио:
lossless
Время звучания:
01:10:50
Наличие сканов:
да
Треклист:

01. Bohunkus Blues (2:55)
02. Buddy Burton's Jazz (2:38)
03. Perdido Street Blues (3:10)
04. Gate Mouth (3:07)
05. Too Tight (2:57)
06. Papa Dip (2:54)
07. Mixed Salad (3:11)
08. I Can't Say (3:10)
09. Flat Foot (3:25)
10. Mad Dog (2:49)
11. Messin Around (2:57)
12. Adams Apple (2:56)
13. East Coast Trot (2:58)
14. Chicago Buzz (2:46)
15. Idle Hour Special (2:56)
16. 47th Street Stomp (3:01)
17. Stock Yards Strut (2:31)
18. Salty Dog (2:45)
19. Ape Man (2:38)
20. Your Folks (2:44)
21. House Rent Rag (3:04)
22. Memphis Shake (3:17)
23. Carpet Alley - Breakdown (2:41)
24. Hen Party Blues (3:19)

Состав:
  • Lil Armstrong    Composer, Piano
  • Jimmy Bertrand    Blocks, Washboard
  • Jimmy Bertrand's Washboard Wizards    Performer
  • Blythe's Washboard Band    Performer
  • Blythe's Washboard Ragamuffins    Performer
  • Jimmy Blythe    Composer, Piano
  • W.E. Burton    Vocals, Washboard
  • Arthur Campbell    Piano
  • Joe Clark    Sax (Alto)
  • Henry Clifford    Composer, Jug
  • Junie C. Cobb    Trombone
  • The Dixieland Jug Blowers    Performer
  • Johnny Dodds    Clarinet
  • Clifford Hayes    Violin
  • Curtis Hayes    Banjo
  • Papa Charlie Jackson    Vocals
  • Freddie Keppard    Cornet
  • Lockwood Lewis    Sax (Alto), Vocals
  • Earl McDonald    Composer, Jug, Vocals, Voices
  • George Mitchell    Cornet
  • New Orleans Bootblacks    Performer
  • New Orleans Wanderers    Performer
  • Kid Ory    Trombone
  • Tiny Parham    Piano
  • Anatol Schenker    Liner Notes
  • Cal Smith    Banjo
  • Freddy Smith    Banjo
  • Trixie Smith    Vocals
  • Johnny St. Cyr    Banjo, Speech/Speaker/Speaking Part
  • Jasper Taylor    Blocks, Drums, Washboard, Wood Block
  • Eddie Vincent    Trombone
  • Eustern Woodfork    Banjo
Лог создания рипа
Exact Audio Copy V1.0 beta 3 from 29. August 2011

EAC extraction logfile from 7. June 2014, 8:40

Johnny Dodds / Johnny Dodds 1926

Used drive  : HL-DT-STDVDRAM GT20N   Adapter: 2  ID: 0

Read mode               : Secure
Utilize accurate stream : Yes
Defeat audio cache      : Yes
Make use of C2 pointers : No

Read offset correction                      : 667
Overread into Lead-In and Lead-Out          : No
Fill up missing offset samples with silence : Yes
Delete leading and trailing silent blocks   : No
Null samples used in CRC calculations       : Yes
Used interface                              : Native Win32 interface for Win NT & 2000
Gap handling                                : Appended to previous track

Used output format              : User Defined Encoder
Selected bitrate                : 1024 kBit/s
Quality                         : High
Add ID3 tag                     : No
Command line compressor         : C:\Program Files (x86)\Exact Audio Copy\Flac\flac.exe
Additional command line options : -8 -V -T "ARTIST=%artist%" -T "TITLE=%title%" -T "ALBUM=%albumtitle%" -T "DATE=%year%" -T "TRACKNUMBER=%tracknr%" -T "GENRE=%genre%" -T "PERFORMER=%albuminterpret%" -T "COMPOSER=%composer%" %haslyrics%--tag-from-file=LYRICS="%lyricsfile%"%haslyrics% -T "ALBUMARTIST=%albumartist%" -T "DISCNUMBER=%cdnumber%" -T "TOTALDISCS=%totalcds%" -T "TOTALTRACKS=%numtracks%" -T "COMMENT=%comment%" %source% -o %dest%

TOC of the extracted CD

     Track |   Start  |  Length  | Start sector | End sector
    ---------------------------------------------------------
        1  |  0:00.32 |  2:54.63 |        32    |    13144
        2  |  2:55.20 |  2:37.62 |     13145    |    24981
        3  |  5:33.07 |  3:10.35 |     24982    |    39266
        4  |  8:43.42 |  3:06.55 |     39267    |    53271
        5  | 11:50.22 |  2:57.25 |     53272    |    66571
        6  | 14:47.47 |  2:53.43 |     66572    |    79589
        7  | 17:41.15 |  3:11.27 |     79590    |    93941
        8  | 20:52.42 |  3:10.10 |     93942    |   108201
        9  | 24:02.52 |  3:24.63 |    108202    |   123564
       10  | 27:27.40 |  2:49.12 |    123565    |   136251
       11  | 30:16.52 |  2:56.55 |    136252    |   149506
       12  | 33:13.32 |  2:55.63 |    149507    |   162694
       13  | 36:09.20 |  2:58.32 |    162695    |   176076
       14  | 39:07.52 |  2:46.05 |    176077    |   188531
       15  | 41:53.57 |  2:55.48 |    188532    |   201704
       16  | 44:49.30 |  3:01.10 |    201705    |   215289
       17  | 47:50.40 |  2:31.27 |    215290    |   226641
       18  | 50:21.67 |  2:44.53 |    226642    |   238994
       19  | 53:06.45 |  2:37.55 |    238995    |   250824
       20  | 55:44.25 |  2:44.17 |    250825    |   263141
       21  | 58:28.42 |  3:04.28 |    263142    |   276969
       22  | 61:32.70 |  3:17.02 |    276970    |   291746
       23  | 64:49.72 |  2:41.20 |    291747    |   303841
       24  | 67:31.17 |  3:19.00 |    303842    |   318766

Track  1

     Filename E:\01 - Blyth's Washboard Band - Bohunkus Blues.wav

     Pre-gap length  0:00:02.42

     Peak level 56.7 %
     Extraction speed 2.3 X
     Track quality 100.0 %
     Test CRC FC02FCD5
     Copy CRC FC02FCD5
     Accurately ripped (confidence 1)  [1D48F66E]  (AR v2)
     Copy OK

Track  2

     Filename E:\02 - Blyth's Washboard Band - Buddy Burton's Jazz.wav

     Pre-gap length  0:00:01.20

     Peak level 63.1 %
     Extraction speed 2.4 X
     Track quality 100.0 %
     Test CRC F8A35289
     Copy CRC F8A35289
     Accurately ripped (confidence 1)  [E1FD3DE6]  (AR v2)
     Copy OK

Track  3

     Filename E:\03 - New Orleans Wanderers - Perdido Street Blues.wav

     Pre-gap length  0:00:01.36

     Peak level 99.8 %
     Extraction speed 2.6 X
     Track quality 100.0 %
     Test CRC 7B976A6A
     Copy CRC 7B976A6A
     Accurately ripped (confidence 1)  [DB06ADC7]  (AR v2)
     Copy OK

Track  4

     Filename E:\04 - New Orleans Wanderers - Gate Mouth.wav

     Pre-gap length  0:00:01.22

     Peak level 100.0 %
     Extraction speed 2.8 X
     Track quality 100.0 %
     Test CRC 581AFFD5
     Copy CRC 581AFFD5
     Accurately ripped (confidence 1)  [F29597AD]  (AR v2)
     Copy OK

Track  5

     Filename E:\05 - New Orleans Wanderers - Too Tight.wav

     Pre-gap length  0:00:00.96

     Peak level 99.8 %
     Extraction speed 3.0 X
     Track quality 100.0 %
     Test CRC BD70709E
     Copy CRC BD70709E
     Accurately ripped (confidence 1)  [7F0E3CC3]  (AR v2)
     Copy OK

Track  6

     Filename E:\06 - New Orleans Wanderers - Papa Dip.wav

     Pre-gap length  0:00:00.93

     Peak level 100.0 %
     Extraction speed 3.0 X
     Track quality 100.0 %
     Test CRC E2CF1F42
     Copy CRC E2CF1F42
     Accurately ripped (confidence 1)  [1D884917]  (AR v2)
     Copy OK

Track  7

     Filename E:\07 - New Orleans Bootblacks - Mixed Salad.wav

     Pre-gap length  0:00:00.84

     Peak level 99.8 %
     Extraction speed 3.3 X
     Track quality 100.0 %
     Test CRC 24CF0ABE
     Copy CRC 24CF0ABE
     Accurately ripped (confidence 1)  [CBA6A5F3]  (AR v2)
     Copy OK

Track  8

     Filename E:\08 - New Orleans Bootblacks - I Can't Say.wav

     Pre-gap length  0:00:01.13

     Peak level 99.9 %
     Extraction speed 3.3 X
     Track quality 100.0 %
     Test CRC 859A3E2B
     Copy CRC 859A3E2B
     Accurately ripped (confidence 1)  [62C25C7B]  (AR v2)
     Copy OK

Track  9

     Filename E:\09 - New Orleans Bootblacks - Flat Foot.wav

     Pre-gap length  0:00:00.89

     Peak level 99.9 %
     Extraction speed 2.4 X
     Track quality 99.9 %
     Test CRC 495CEC19
     Copy CRC 495CEC19
     Accurately ripped (confidence 1)  [BD0240D8]  (AR v2)
     Copy OK

Track 10

     Filename E:\10 - New Orleans Bootblacks - Mad Dog.wav

     Pre-gap length  0:00:01.24

     Peak level 99.9 %
     Extraction speed 1.8 X
     Track quality 100.0 %
     Test CRC CE82A40A
     Copy CRC CE82A40A
     Accurately ripped (confidence 1)  [68B71059]  (AR v2)
     Copy OK

Track 11

     Filename E:\11 - Jimmie Blythe And His Ragtimers - Messin Around.wav

     Pre-gap length  0:00:01.40

     Peak level 100.0 %
     Extraction speed 1.9 X
     Track quality 100.0 %
     Test CRC 74D6C5A8
     Copy CRC 74D6C5A8
     Accurately ripped (confidence 1)  [7E400727]  (AR v2)
     Copy OK

Track 12

     Filename E:\12 - Jimmie Blythe And His Ragtimers - Adams Apple.wav

     Pre-gap length  0:00:01.00

     Peak level 100.0 %
     Extraction speed 1.9 X
     Track quality 100.0 %
     Test CRC 1125CB5F
     Copy CRC 1125CB5F
     Accurately ripped (confidence 1)  [61660348]  (AR v2)
     Copy OK

Track 13

     Filename E:\13 - Junie Cobb's Hometown Band - East Coast Trot.wav

     Pre-gap length  0:00:01.60

     Peak level 81.4 %
     Extraction speed 2.0 X
     Track quality 100.0 %
     Test CRC EFF93F13
     Copy CRC EFF93F13
     Accurately ripped (confidence 1)  [89D98928]  (AR v2)
     Copy OK

Track 14

     Filename E:\14 - Junie Cobb's Hometown Band - Chicago Buzz.wav

     Pre-gap length  0:00:00.02

     Peak level 88.4 %
     Extraction speed 2.0 X
     Track quality 100.0 %
     Test CRC 6A09BC8A
     Copy CRC 6A09BC8A
     Accurately ripped (confidence 1)  [F215C42F]  (AR v2)
     Copy OK

Track 15

     Filename E:\15 - Jimmy Bertrand's Washboard Wizards - Idle Hour Special.wav

     Pre-gap length  0:00:01.13

     Peak level 99.8 %
     Extraction speed 1.7 X
     Track quality 99.9 %
     Test CRC 70457A94
     Copy CRC 70457A94
     Accurately ripped (confidence 1)  [BAB31835]  (AR v2)
     Copy OK

Track 16

     Filename E:\16 - Jimmy Bertrand's Washboard Wizards - 47th Street Stomp.wav

     Pre-gap length  0:00:01.04

     Peak level 98.9 %
     Extraction speed 2.1 X
     Track quality 100.0 %
     Test CRC 2B27751A
     Copy CRC 2B27751A
     Accurately ripped (confidence 1)  [A6C61BB3]  (AR v2)
     Copy OK

Track 17

     Filename E:\17 - Freddie Keppard's Jazz Cardinals - Stock Yards Strut.wav

     Pre-gap length  0:00:00.93

     Peak level 100.0 %
     Extraction speed 1.8 X
     Track quality 99.9 %
     Test CRC 20910CDA
     Copy CRC 20910CDA
     Accurately ripped (confidence 1)  [A285630A]  (AR v2)
     Copy OK

Track 18

     Filename E:\18 - Freddie Keppard's Jazz Cardinals - Salty Dog.wav

     Pre-gap length  0:00:00.96

     Peak level 100.0 %
     Extraction speed 2.2 X
     Track quality 100.0 %
     Test CRC ECD1776D
     Copy CRC ECD1776D
     Accurately ripped (confidence 1)  [83B6876C]  (AR v2)
     Copy OK

Track 19

     Filename E:\19 - Blythe's Washboard Ragamuffins - Ape Man.wav

     Pre-gap length  0:00:00.97

     Peak level 99.8 %
     Extraction speed 2.2 X
     Track quality 100.0 %
     Test CRC E9E0DAF2
     Copy CRC E9E0DAF2
     Accurately ripped (confidence 1)  [8AA9CBC8]  (AR v2)
     Copy OK

Track 20

     Filename E:\20 - Blythe's Washboard Ragamuffins - Your Folks.wav

     Pre-gap length  0:00:00.70

     Peak level 98.9 %
     Extraction speed 2.2 X
     Track quality 100.0 %
     Test CRC B9D9FF16
     Copy CRC B9D9FF16
     Accurately ripped (confidence 1)  [EBE3683A]  (AR v2)
     Copy OK

Track 21

     Filename E:\21 - Dixieland Jug Blowers - House Rent Rag.wav

     Pre-gap length  0:00:00.96

     Peak level 99.9 %
     Extraction speed 2.4 X
     Track quality 100.0 %
     Test CRC 3F3BED32
     Copy CRC 3F3BED32
     Accurately ripped (confidence 1)  [1733CBEE]  (AR v2)
     Copy OK

Track 22

     Filename E:\22 - Dixieland Jug Blowers - Memphis Shake.wav

     Pre-gap length  0:00:01.04

     Peak level 100.0 %
     Extraction speed 2.5 X
     Track quality 100.0 %
     Test CRC 75FD533A
     Copy CRC 75FD533A
     Accurately ripped (confidence 1)  [4B8189AC]  (AR v2)
     Copy OK

Track 23

     Filename E:\23 - Dixieland Jug Blowers - Carpet Alley - Breakdown.wav

     Pre-gap length  0:00:00.73

     Peak level 100.0 %
     Extraction speed 2.3 X
     Track quality 100.0 %
     Test CRC 6968F076
     Copy CRC 6968F076
     Accurately ripped (confidence 1)  [9FA92EE8]  (AR v2)
     Copy OK

Track 24

     Filename E:\24 - Dixieland Jug Blowers - Hen Party Blues.wav

     Pre-gap length  0:00:01.13

     Peak level 100.0 %
     Extraction speed 2.6 X
     Track quality 100.0 %
     Test CRC C2189BBD
     Copy CRC C2189BBD
     Accurately ripped (confidence 1)  [57E399DC]  (AR v2)
     Copy OK

All tracks accurately ripped

No errors occurred

End of status report

==== Log checksum 679A6274F88087E8D60BB475F4703D130C41E50668F01DA5DC3EE5D2D4438761 ====
Download available for power users only.
14:01
367
Нет комментариев. Ваш будет первым!