Поиск

1991 Jelly-Roll Morton - 1926-1928 {The Chronological Classics 612} [CD]

1991 Jelly-Roll Morton - 1926-1928 {The Chronological Classics 612} [CD]
Издатель (лейбл):
Номер по каталогу:
CC612
Носитель:
CD
Тип рипа:
tracks+.cue
Аудиокодек:
FLAC (*.flac)
Битрейт аудио:
lossless
Время звучания:
01:10:11
Наличие сканов:
только обложка
Треклист:

01. Doctor Jazz (3:28)
02. Cannon Ball Blues (3:35)
03. Hyena Stomp (3:11)
04. Billy Goat Stomp (3:31)
05. Wild Man Blues (3:06)
06. Jungle Blues (3:29)
07. Beale Street Blues (3:16)
08. The Pearls (3:27)
09. Wolverine Blues (3:22)
10. Mr. Jelly Lord (2:55)
11. Midnight Mama (2:44)
12. Mr. Jelly Lord (2:58)
13. Sergent Dunn's Bugle Call Blues (3:03)
14. Ham and Eggs (3:03)
15. Buffalo Blues (3:07)
16. You Need Some Loving (3:10)
17. Georgia Swing (2:30)
18. Kansas City Stomps (2:54)
19. Shoe Shiner's Drag (3:19)
20. Boogaboo (3:19)
21. Shreveport (3:17)
22. Mournful Serenade (3:27)

Состав:
  •     Alto Saxophone – Stump Evans (треков: 3 to 6)
  •     Banjo – John Mitchell (19) (треков: 13 to 16), Johnny St. Cyr (треков: 1, 2), Lee Blair (треков: 17 to 20), Lesley Corley (треков: 11, 12)
  •     Brass Bass – Bill Benford (треков: 17 to 20), Harry Hull (треков: 13 to 16), Hayes Alvis (треков: 11, 12), Quinn Wilson (треков: 3 to 6)
  •     Clarinet – Johnny Dodds (треков: 3 to 10), Omer Simeon (треков: 1, 2, 17 to 22)
  •     Clarinet, Alto Saxophone – Garvin Bushell (треков: 13 to 16)
  •     Clarinet, Soprano Saxophone, Baritone Saxophone – Walter Thomas (треков: 11, 12)
  •     Cornet – George Mitchell (3) (треков: 1 to 6), Johnny Dunn (треков: 13 to 16)
  •     Directed By – Jelly-Roll Morton* (треков: 3 to 10, 17 to 22)
  •     Double Bass – John Lindsay (треков: 1, 2)
  •     Drums – Andrew Hilaire (треков: 1, 2), Baby Dodds (треков: 3 to 10), Mort Perry (треков: 13 to 16), Tommy Benford (треков: 17 to 22), Wallace Bishop (треков: 11, 12)
  •     Effects – Lew LeMar (треков: 3 to 6)
  •     Guitar – Bud Scott (треков: 3 to 6)
  •     Liner Notes – Anatol Schenker
  •     Piano – Jelly-Roll Morton*
  •     Trombone – Geechie Fields (треков: 17 to 20, 22), Gerald Reeves (треков: 3 to 6), Herb Fleming (треков: 13 to 16), Kid Ory (треков: 1, 2), Louis Taylor (3) (треков: 11, 12)
  •     Trumpet – Edwin Swayzee (треков: 11, 12), Ward Pinkett (треков: 17 to 20)
  •     Vocals – Frances Hereford (треков: 11, 12), Jelly-Roll Morton* (треков: 3 to 10, 17 to 22)
Лог создания рипа
Exact Audio Copy V1.3 from 2. September 2016
EAC extraction logfile from 3. September 2017, 23:06
Jelly Roll Morton / Chronological Jelly Roll Morton: 1926-1928
Used drive  : MATSHITADVD+-RW UJ8C2   Adapter: 1  ID: 0
Read mode               : Secure
Utilize accurate stream : Yes
Defeat audio cache      : Yes
Make use of C2 pointers : No
Read offset correction                      : 103
Overread into Lead-In and Lead-Out          : No
Fill up missing offset samples with silence : Yes
Delete leading and trailing silent blocks   : No
Null samples used in CRC calculations       : Yes
Used interface                              : Native Win32 interface for Win NT & 2000
Gap handling                                : Appended to previous track
Used output format              : User Defined Encoder
Selected bitrate                : 512 kBit/s
Quality                         : High
Add ID3 tag                     : No
Command line compressor         : C:\Program Files (x86)\Exact Audio Copy\Flac\flac.exe
Additional command line options : -8 -e -p -V -T "ARTIST=%artist%" -T "TITLE=%title%" -T "ALBUM=%albumtitle%" -T "DATE=%year%" -T "TRACKNUMBER=%tracknr%" -T "GENRE=%genre%" -T "PERFORMER=%albuminterpret%" -T "COMPOSER=%composer%" %haslyrics%--tag-from-file=LYRICS="%lyricsfile%"%haslyrics% -T "ALBUMARTIST=%albumartist%" -T "DISCNUMBER=%cdnumber%" -T "TOTALDISCS=%totalcds%" -T "TOTALTRACKS=%numtracks%" -T "COMMENT=%comment%" %source% -o %dest%
TOC of the extracted CD
     Track |   Start  |  Length  | Start sector | End sector
    ---------------------------------------------------------
        1  |  0:00.32 |  3:27.43 |        32    |    15599
        2  |  3:28.00 |  3:34.52 |     15600    |    31701
        3  |  7:02.52 |  3:11.08 |     31702    |    46034
        4  | 10:13.60 |  3:30.62 |     46035    |    61846
        5  | 13:44.47 |  3:06.35 |     61847    |    75831
        6  | 16:51.07 |  3:29.15 |     75832    |    91521
        7  | 20:20.22 |  3:16.33 |     91522    |   106254
        8  | 23:36.55 |  3:27.05 |    106255    |   121784
        9  | 27:03.60 |  3:22.37 |    121785    |   136971
       10  | 30:26.22 |  2:54.55 |    136972    |   150076
       11  | 33:21.02 |  2:44.35 |    150077    |   162411
       12  | 36:05.37 |  2:57.48 |    162412    |   175734
       13  | 39:03.10 |  3:02.55 |    175735    |   189439
       14  | 42:05.65 |  3:02.62 |    189440    |   203151
       15  | 45:08.52 |  3:06.43 |    203152    |   217144
       16  | 48:15.20 |  3:10.20 |    217145    |   231414
       17  | 51:25.40 |  2:30.30 |    231415    |   242694
       18  | 53:55.70 |  2:54.02 |    242695    |   255746
       19  | 56:49.72 |  3:18.60 |    255747    |   270656
       20  | 60:08.57 |  3:18.53 |    270657    |   285559
       21  | 63:27.35 |  3:17.07 |    285560    |   300341
       22  | 66:44.42 |  3:26.65 |    300342    |   315856
Track  1
     Filename C:\Rips\Chronological Jelly Roll Morton 1926-1928 (1991)\01 - Doctor Jazz.wav
     Pre-gap length  0:00:02.42
     Peak level 90.8 %
     Extraction speed 2.5 X
     Track quality 100.0 %
     Test CRC 6371FE59
     Copy CRC 6371FE59
     Accurately ripped (confidence 3)  [C2900C72]  (AR v2)
     Copy OK
Track  2
     Filename C:\Rips\Chronological Jelly Roll Morton 1926-1928 (1991)\02 - Cannon Ball Blues.wav
     Pre-gap length  0:00:01.53
     Peak level 94.0 %
     Extraction speed 2.7 X
     Track quality 100.0 %
     Test CRC 116D3933
     Copy CRC 116D3933
     Accurately ripped (confidence 3)  [3AB796B4]  (AR v2)
     Copy OK
Track  3
     Filename C:\Rips\Chronological Jelly Roll Morton 1926-1928 (1991)\03 - Hyena Stomp.wav
     Pre-gap length  0:00:01.82
     Peak level 96.2 %
     Extraction speed 2.8 X
     Track quality 100.0 %
     Test CRC 4F7ADA57
     Copy CRC 4F7ADA57
     Accurately ripped (confidence 3)  [A14C43FC]  (AR v2)
     Copy OK
Track  4
     Filename C:\Rips\Chronological Jelly Roll Morton 1926-1928 (1991)\04 - Billy Goat Stomp.wav
     Pre-gap length  0:00:01.80
     Peak level 76.9 %
     Extraction speed 2.2 X
     Track quality 99.9 %
     Test CRC 3AD29AC1
     Copy CRC 3AD29AC1
     Accurately ripped (confidence 3)  [4EB92752]  (AR v2)
     Copy OK
Track  5
     Filename C:\Rips\Chronological Jelly Roll Morton 1926-1928 (1991)\05 - Wild Man Blues.wav
     Pre-gap length  0:00:01.80
     Peak level 91.0 %
     Extraction speed 3.2 X
     Track quality 100.0 %
     Test CRC B43F7D66
     Copy CRC B43F7D66
     Accurately ripped (confidence 3)  [8B493CDE]  (AR v2)
     Copy OK
Track  6
     Filename C:\Rips\Chronological Jelly Roll Morton 1926-1928 (1991)\06 - Jungle Blues.wav
     Pre-gap length  0:00:01.93
     Peak level 51.6 %
     Extraction speed 3.4 X
     Track quality 100.0 %
     Test CRC 40325BD4
     Copy CRC 40325BD4
     Accurately ripped (confidence 3)  [0C2E561D]  (AR v2)
     Copy OK
Track  7
     Filename C:\Rips\Chronological Jelly Roll Morton 1926-1928 (1991)\07 - Beale Street Blues.wav
     Pre-gap length  0:00:01.60
     Peak level 74.3 %
     Extraction speed 3.5 X
     Track quality 100.0 %
     Test CRC 6CC6820B
     Copy CRC 6CC6820B
     Accurately ripped (confidence 3)  [7AF30624]  (AR v2)
     Copy OK
Track  8
     Filename C:\Rips\Chronological Jelly Roll Morton 1926-1928 (1991)\08 - The Pearls.wav
     Pre-gap length  0:00:01.84
     Peak level 65.5 %
     Extraction speed 3.7 X
     Track quality 100.0 %
     Test CRC 2F66C221
     Copy CRC 2F66C221
     Accurately ripped (confidence 3)  [8F268384]  (AR v2)
     Copy OK
Track  9
     Filename C:\Rips\Chronological Jelly Roll Morton 1926-1928 (1991)\09 - Wolverine Blues.wav
     Pre-gap length  0:00:01.90
     Peak level 61.8 %
     Extraction speed 2.7 X
     Track quality 99.9 %
     Test CRC C4A45068
     Copy CRC C4A45068
     Accurately ripped (confidence 2)  [3ECBF86B]  (AR v2)
     Copy OK
Track 10
     Filename C:\Rips\Chronological Jelly Roll Morton 1926-1928 (1991)\10 - Mr. Jelly Lord.wav
     Pre-gap length  0:00:01.46
     Peak level 67.8 %
     Extraction speed 3.8 X
     Track quality 100.0 %
     Test CRC D425B3CB
     Copy CRC D425B3CB
     Accurately ripped (confidence 3)  [BA68568F]  (AR v2)
     Copy OK
Track 11
     Filename C:\Rips\Chronological Jelly Roll Morton 1926-1928 (1991)\11 - Midnight Mama.wav
     Pre-gap length  0:00:01.96
     Peak level 68.0 %
     Extraction speed 3.9 X
     Track quality 100.0 %
     Test CRC 54AF1E0D
     Copy CRC 54AF1E0D
     Accurately ripped (confidence 3)  [AC2F43C8]  (AR v2)
     Copy OK
Track 12
     Filename C:\Rips\Chronological Jelly Roll Morton 1926-1928 (1991)\12 - Mr. Jelly Lord.wav
     Pre-gap length  0:00:01.80
     Peak level 64.4 %
     Extraction speed 2.7 X
     Track quality 99.9 %
     Test CRC 032FE0F6
     Copy CRC 032FE0F6
     Accurately ripped (confidence 3)  [D93005C4]  (AR v2)
     Copy OK
Track 13
     Filename C:\Rips\Chronological Jelly Roll Morton 1926-1928 (1991)\13 - Sergent Dunn's Bugle Call Blues.wav
     Pre-gap length  0:00:01.97
     Peak level 71.1 %
     Extraction speed 4.1 X
     Track quality 100.0 %
     Test CRC 362AF5B3
     Copy CRC 362AF5B3
     Accurately ripped (confidence 3)  [7774DBE8]  (AR v2)
     Copy OK
Track 14
     Filename C:\Rips\Chronological Jelly Roll Morton 1926-1928 (1991)\14 - Ham and Eggs.wav
     Pre-gap length  0:00:01.46
     Peak level 49.3 %
     Extraction speed 4.3 X
     Track quality 100.0 %
     Test CRC B9E3A39A
     Copy CRC B9E3A39A
     Accurately ripped (confidence 3)  [1F950A23]  (AR v2)
     Copy OK
Track 15
     Filename C:\Rips\Chronological Jelly Roll Morton 1926-1928 (1991)\15 - Buffalo Blues.wav
     Pre-gap length  0:00:01.82
     Peak level 69.1 %
     Extraction speed 3.0 X
     Track quality 99.9 %
     Test CRC F6CD94CD
     Copy CRC F6CD94CD
     Accurately ripped (confidence 3)  [2EEBD31E]  (AR v2)
     Copy OK
Track 16
     Filename C:\Rips\Chronological Jelly Roll Morton 1926-1928 (1991)\16 - You Need Some Loving.wav
     Pre-gap length  0:00:01.93
     Peak level 82.2 %
     Extraction speed 4.5 X
     Track quality 100.0 %
     Test CRC 5AB45D53
     Copy CRC 5AB45D53
     Accurately ripped (confidence 3)  [F2753486]  (AR v2)
     Copy OK
Track 17
     Filename C:\Rips\Chronological Jelly Roll Morton 1926-1928 (1991)\17 - Georgia Swing.wav
     Pre-gap length  0:00:01.44
     Peak level 94.1 %
     Extraction speed 2.8 X
     Track quality 99.9 %
     Test CRC DB5C9872
     Copy CRC DB5C9872
     Accurately ripped (confidence 3)  [F9EAF0EF]  (AR v2)
     Copy OK
Track 18
     Filename C:\Rips\Chronological Jelly Roll Morton 1926-1928 (1991)\18 - Kansas City Stomps.wav
     Pre-gap length  0:00:02.26
     Peak level 50.3 %
     Extraction speed 4.5 X
     Track quality 100.0 %
     Test CRC 77BCA404
     Copy CRC 77BCA404
     Accurately ripped (confidence 3)  [71BCB77D]  (AR v2)
     Copy OK
Track 19
     Filename C:\Rips\Chronological Jelly Roll Morton 1926-1928 (1991)\19 - Shoe Shiner's Drag.wav
     Pre-gap length  0:00:01.76
     Peak level 68.4 %
     Extraction speed 4.8 X
     Track quality 100.0 %
     Test CRC 768514E1
     Copy CRC 768514E1
     Accurately ripped (confidence 3)  [B4F8D7EF]  (AR v2)
     Copy OK
Track 20
     Filename C:\Rips\Chronological Jelly Roll Morton 1926-1928 (1991)\20 - Boogaboo.wav
     Pre-gap length  0:00:02.02
     Peak level 62.1 %
     Extraction speed 4.9 X
     Track quality 100.0 %
     Test CRC 9C0A460C
     Copy CRC 9C0A460C
     Accurately ripped (confidence 3)  [8EB897EA]  (AR v2)
     Copy OK
Track 21
     Filename C:\Rips\Chronological Jelly Roll Morton 1926-1928 (1991)\21 - Shreveport.wav
     Pre-gap length  0:00:01.60
     Peak level 57.7 %
     Extraction speed 5.0 X
     Track quality 100.0 %
     Test CRC AE0F1FAE
     Copy CRC AE0F1FAE
     Accurately ripped (confidence 3)  [95BEBCD0]  (AR v2)
     Copy OK
Track 22
     Filename C:\Rips\Chronological Jelly Roll Morton 1926-1928 (1991)\22 - Mournful Serenade.wav
     Pre-gap length  0:00:01.46
     Peak level 79.9 %
     Extraction speed 5.1 X
     Track quality 100.0 %
     Test CRC F4937389
     Copy CRC F4937389
     Accurately ripped (confidence 3)  [D46F4F29]  (AR v2)
     Copy OK
All tracks accurately ripped
No errors occurred
End of status report
---- CUETools DB Plugin V2.1.6
[CTDB TOCID: v7yGyTWTbIICf43jTcrnIqv61Kc-] found
Submit result: v7yGyTWTbIICf43jTcrnIqv61Kc- has been confirmed
Track | CTDB Status
  1   | (3/3) Accurately ripped
  2   | (3/3) Accurately ripped
  3   | (3/3) Accurately ripped
  4   | (2/3) Accurately ripped
  5   | (2/3) Accurately ripped
  6   | (2/3) Accurately ripped
  7   | (2/3) Accurately ripped
  8   | (2/3) Accurately ripped
  9   | (3/3) Accurately ripped
 10   | (3/3) Accurately ripped
 11   | (3/3) Accurately ripped
 12   | (3/3) Accurately ripped
 13   | (3/3) Accurately ripped
 14   | (3/3) Accurately ripped
 15   | (3/3) Accurately ripped
 16   | (3/3) Accurately ripped
 17   | (3/3) Accurately ripped
 18   | (3/3) Accurately ripped
 19   | (3/3) Accurately ripped
 20   | (3/3) Accurately ripped
 21   | (3/3) Accurately ripped
 22   | (3/3) Accurately ripped
==== Log checksum 24E45FCFF049053F4C73B4A2EAFC68C57CE2CE4DA173AE39C6F042A791B36052 ====
По всем вопросам пишите личное сообщение пользователю M0p94ok.
12:51
211
Нет комментариев. Ваш будет первым!