Поиск

1991 Coleman Hawkins - 1929-1934 {The Chronological Classics 587} [CD]

1991 Coleman Hawkins - 1929-1934 {The Chronological Classics 587} [CD]
Дата записи диска:
8 сентября 1929 - 8 марта 1934
Издатель (лейбл):
Номер по каталогу:
CC587
Носитель:
CD
Тип рипа:
tracks+.cue
Аудиокодек:
FLAC (*.flac)
Битрейт аудио:
lossless
Время звучания:
01:09:08
Наличие сканов:
да
Треклист:

01. Hello, Lola (3:15)
02. One Hour (3:26)
03. Dismal Dan (3:10)
04. Poor Richard (3:04)
05. Down Georgia Way (3:32)
06. Georgia on My Mind (3:22)
07. I Can't Believe That You're in Love with Me (3:09)
08. The Darktown Strutters' Ball (3:29)
09. You Rascal, You (3:02)
10. The Day You Came Along (3:39)
11. Jamaica Shout (3:01)
12. Heartbreak Blues (3:29)
13. Happy Feet (2:51)
14. Rhythm Crazy (3:18)
15. Ol' Man River (3:08)
16. Minnie the Moocher's Wedding Day (3:07)
17. Ain't Cha Glad? (3:21)
18. I've Got to Sing a Torch Song (3:39)
19. It Sends Me (3:17)
20. I Ain't Got Nobody (3:20)
21. On the Sunny Side of the Street (3:29)

Состав:
  • Bernard Addison    Guitar
  • Henry "Red" Allen    Trumpet, Vocals
  • Josh Billings    Drums
  • Jack Bland    Guitar
  • Eddie Condon    Banjo, Vocals
  • Jimmy Dorsey    Clarinet, Sax (Alto)
  • Pops Foster    Sax (Baritone)
  • Coleman Hawkins    Clarinet, Composer, Sax (Tenor)
  • Fletcher Henderson    Arranger, Composer
  • Horace Henderson    Arranger, Performer, Piano
  • J.C. Higginbotham    Trombone, Vocals
  • Hilton Jefferson    Clarinet, Sax (Alto)
  • Walter Johnson    Drums
  • Will Johnson    Guitar, Vocals
  • Claude Jones    Trombone
  • Charlie Kegley    Drums
  • John Kirby    String Bass
  • Gene Krupa    Drums
  • Red McKenzie    Comb, Composer, Vocals
  • Glenn Miller    Trombone
  • Al Morgan    String Bass
  • The Mound City Blue Blowers    Performer
  • Russell Procope    Clarinet, Sax (Alto)
  • Jack Purvis    Composer, Trumpet, Vocals
  • Adrian Rollini    Sax (Baritone)
  • Pee Wee Russell    Clarinet
  • Jack Russin    Piano
  • Russell Smith    Trumpet
  • Muggsy Spanier    Cornet
  • Bobby Stark    Trumpet
  • Buck Washington    Piano
  • Dicky Wells    Trombone
Лог создания рипа
Exact Audio Copy V1.0 beta 3 from 29. August 2011

EAC extraction logfile from 12. February 2012, 5:39

Coleman Hawkins / The Chronological Coleman Hawkins 1929-1934

Used drive  : Optiarc DVD RW AD-7260S   Adapter: 3  ID: 0

Read mode               : Secure
Utilize accurate stream : Yes
Defeat audio cache      : Yes
Make use of C2 pointers : No

Read offset correction                      : 48
Overread into Lead-In and Lead-Out          : No
Fill up missing offset samples with silence : Yes
Delete leading and trailing silent blocks   : No
Null samples used in CRC calculations       : Yes
Used interface                              : Native Win32 interface for Win NT & 2000
Gap handling                                : Appended to previous track

Used output format              : User Defined Encoder
Selected bitrate                : 1024 kBit/s
Quality                         : High
Add ID3 tag                     : No
Command line compressor         : C:\Program Files (x86)\Exact Audio Copy\Flac\flac.exe
Additional command line options : -8 -V -T "ARTIST=%artist%" -T "TITLE=%title%" -T "ALBUM=%albumtitle%" -T "DATE=%year%" -T "TRACKNUMBER=%tracknr%" -T "GENRE=%genre%" -T "PERFORMER=%albuminterpret%" -T "COMPOSER=%composer%"  -T "ALBUMARTIST=%albumartist%" -T "DISCNUMBER=%cdnumber%" -T "TOTALDISCS=%totalcds%" -T "TOTALTRACKS=%numtracks%" -T "COMMENT=%comment%" %source% -o %dest%

TOC of the extracted CD

     Track |   Start  |  Length  | Start sector | End sector
    ---------------------------------------------------------
        1  |  0:00.32 |  3:15.33 |        32    |    14689
        2  |  3:15.65 |  3:25.70 |     14690    |    30134
        3  |  6:41.60 |  3:09.45 |     30135    |    44354
        4  |  9:51.30 |  3:03.67 |     44355    |    58146
        5  | 12:55.22 |  3:31.53 |     58147    |    74024
        6  | 16:27.00 |  3:21.65 |     74025    |    89164
        7  | 19:48.65 |  3:08.60 |     89165    |   103324
        8  | 22:57.50 |  3:28.52 |    103325    |   118976
        9  | 26:26.27 |  3:01.70 |    118977    |   132621
       10  | 29:28.22 |  3:38.50 |    132622    |   149021
       11  | 33:06.72 |  3:00.68 |    149022    |   162589
       12  | 36:07.65 |  3:29.20 |    162590    |   178284
       13  | 39:37.10 |  2:50.57 |    178285    |   191091
       14  | 42:27.67 |  3:17.40 |    191092    |   205906
       15  | 45:45.32 |  3:08.10 |    205907    |   220016
       16  | 48:53.42 |  3:06.43 |    220017    |   234009
       17  | 52:00.10 |  3:20.55 |    234010    |   249064
       18  | 55:20.65 |  3:38.55 |    249065    |   265469
       19  | 58:59.45 |  3:16.60 |    265470    |   280229
       20  | 62:16.30 |  3:20.07 |    280230    |   295236
       21  | 65:36.37 |  3:28.68 |    295237    |   310904

Track  1

     Filename C:\Rips\01 - Hello, Lola.wav

     Pre-gap length  0:00:02.42

     Peak level 83.5 %
     Extraction speed 2.3 X
     Track quality 100.0 %
     Test CRC EAF0E673
     Copy CRC EAF0E673
     Accurately ripped (confidence 2)  [81A0E2C7]  (AR v1)
     Copy OK

Track  2

     Filename C:\Rips\02 - One Hour.wav

     Pre-gap length  0:00:01.70

     Peak level 72.0 %
     Extraction speed 2.6 X
     Track quality 100.0 %
     Test CRC 3BEE393A
     Copy CRC 3BEE393A
     Accurately ripped (confidence 2)  [D4ACD101]  (AR v1)
     Copy OK

Track  3

     Filename C:\Rips\03 - Dismal Dan.wav

     Pre-gap length  0:00:01.73

     Peak level 72.2 %
     Extraction speed 2.7 X
     Track quality 100.0 %
     Test CRC 40704FD0
     Copy CRC 40704FD0
     Accurately ripped (confidence 2)  [FDD618AC]  (AR v1)
     Copy OK

Track  4

     Filename C:\Rips\04 - Poor Richard.wav

     Pre-gap length  0:00:02.50

     Peak level 67.7 %
     Extraction speed 2.5 X
     Track quality 99.9 %
     Test CRC 91C83004
     Copy CRC 91C83004
     Accurately ripped (confidence 2)  [39B0D874]  (AR v1)
     Copy OK

Track  5

     Filename C:\Rips\05 - Down Georgia Way.wav

     Pre-gap length  0:00:01.16

     Peak level 76.8 %
     Extraction speed 3.1 X
     Track quality 100.0 %
     Test CRC 6E43393F
     Copy CRC 6E43393F
     Accurately ripped (confidence 2)  [2F8EDFBA]  (AR v1)
     Copy OK

Track  6

     Filename C:\Rips\06 - Georgia On My Mind.wav

     Pre-gap length  0:00:01.04

     Peak level 69.3 %
     Extraction speed 2.8 X
     Track quality 99.9 %
     Test CRC 660B5EAF
     Copy CRC 660B5EAF
     Accurately ripped (confidence 2)  [67D0C937]  (AR v1)
     Copy OK

Track  7

     Filename C:\Rips\07 - I Can't Believe That You're In Love With Me.wav

     Pre-gap length  0:00:01.53

     Peak level 84.0 %
     Extraction speed 3.4 X
     Track quality 100.0 %
     Test CRC EA730C50
     Copy CRC EA730C50
     Accurately ripped (confidence 2)  [1EBD57BD]  (AR v1)
     Copy OK

Track  8

     Filename C:\Rips\08 - The Darktown Strutters' Ball.wav

     Pre-gap length  0:00:01.33

     Peak level 99.3 %
     Extraction speed 3.6 X
     Track quality 100.0 %
     Test CRC 9FCB1169
     Copy CRC 9FCB1169
     Accurately ripped (confidence 2)  [55273C28]  (AR v1)
     Copy OK

Track  9

     Filename C:\Rips\09 - You Rascal, You.wav

     Pre-gap length  0:00:01.06

     Peak level 99.0 %
     Extraction speed 3.1 X
     Track quality 99.9 %
     Test CRC A4856119
     Copy CRC A4856119
     Accurately ripped (confidence 2)  [199DEFE1]  (AR v1)
     Copy OK

Track 10

     Filename C:\Rips\10 - The Day You Came Along.wav

     Pre-gap length  0:00:01.16

     Peak level 94.0 %
     Extraction speed 3.9 X
     Track quality 100.0 %
     Test CRC D9ECF2D0
     Copy CRC D9ECF2D0
     Accurately ripped (confidence 2)  [BEEEC79A]  (AR v1)
     Copy OK

Track 11

     Filename C:\Rips\11 - Jamaica Shout.wav

     Pre-gap length  0:00:00.93

     Peak level 91.8 %
     Extraction speed 3.3 X
     Track quality 99.9 %
     Test CRC 76BE04E5
     Copy CRC 76BE04E5
     Accurately ripped (confidence 2)  [0EAC1594]  (AR v1)
     Copy OK

Track 12

     Filename C:\Rips\12 - Heartbreak Blues.wav

     Pre-gap length  0:00:01.93

     Peak level 85.6 %
     Extraction speed 4.1 X
     Track quality 100.0 %
     Test CRC CA58238D
     Copy CRC CA58238D
     Accurately ripped (confidence 2)  [6B05BC5B]  (AR v1)
     Copy OK

Track 13

     Filename C:\Rips\13 - Happy Feet.wav

     Pre-gap length  0:00:01.44

     Peak level 96.2 %
     Extraction speed 4.1 X
     Track quality 100.0 %
     Test CRC 24B7608B
     Copy CRC 24B7608B
     Accurately ripped (confidence 2)  [08848759]  (AR v1)
     Copy OK

Track 14

     Filename C:\Rips\14 - Rythm Crazy.wav

     Pre-gap length  0:00:01.09

     Peak level 94.7 %
     Extraction speed 3.7 X
     Track quality 99.9 %
     Test CRC 9DFAAE79
     Copy CRC 9DFAAE79
     Accurately ripped (confidence 2)  [8444E604]  (AR v1)
     Copy OK

Track 15

     Filename C:\Rips\15 - Ol' Man River.wav

     Pre-gap length  0:00:01.16

     Peak level 99.3 %
     Extraction speed 4.3 X
     Track quality 100.0 %
     Test CRC B2AAAA53
     Copy CRC B2AAAA53
     Accurately ripped (confidence 2)  [3BC4AE6A]  (AR v1)
     Copy OK

Track 16

     Filename C:\Rips\16 - Minnie The Moocher's Wedding Day.wav

     Pre-gap length  0:00:01.36

     Peak level 94.9 %
     Extraction speed 3.8 X
     Track quality 99.9 %
     Test CRC 285A0B36
     Copy CRC 285A0B36
     Accurately ripped (confidence 2)  [96933E15]  (AR v1)
     Copy OK

Track 17

     Filename C:\Rips\17 - Ain't Cha Glad.wav

     Pre-gap length  0:00:00.90

     Peak level 85.8 %
     Extraction speed 4.6 X
     Track quality 100.0 %
     Test CRC 9A3F43FE
     Copy CRC 9A3F43FE
     Accurately ripped (confidence 2)  [B075781B]  (AR v1)
     Copy OK

Track 18

     Filename C:\Rips\18 - I've Got To Sing A Torch Song.wav

     Pre-gap length  0:00:01.04

     Peak level 93.5 %
     Extraction speed 4.8 X
     Track quality 100.0 %
     Test CRC FBAEE834
     Copy CRC FBAEE834
     Accurately ripped (confidence 2)  [ABBFA5F0]  (AR v1)
     Copy OK

Track 19

     Filename C:\Rips\19 - It Sends Me.wav

     Pre-gap length  0:00:01.26

     Peak level 81.1 %
     Extraction speed 4.8 X
     Track quality 100.0 %
     Test CRC 08087CD2
     Copy CRC 08087CD2
     Accurately ripped (confidence 2)  [F35B655E]  (AR v1)
     Copy OK

Track 20

     Filename C:\Rips\20 - I Ain't Got Nobody.wav

     Pre-gap length  0:00:01.24

     Peak level 87.6 %
     Extraction speed 5.0 X
     Track quality 100.0 %
     Test CRC 98A10F99
     Copy CRC 98A10F99
     Accurately ripped (confidence 2)  [9953A206]  (AR v1)
     Copy OK

Track 21

     Filename C:\Rips\21 - On The Sunny Side Of The Street.wav

     Pre-gap length  0:00:00.86

     Peak level 86.6 %
     Extraction speed 5.1 X
     Track quality 100.0 %
     Test CRC 6029516E
     Copy CRC 6029516E
     Accurately ripped (confidence 2)  [58CB3025]  (AR v1)
     Copy OK

All tracks accurately ripped

No errors occurred

End of status report

==== Log checksum 6673545AB1B92D3F53BB17C723637D47C3988616AE6350596ABCB624A61BE4B6 ====
По всем вопросам пишите личное сообщение пользователю M0p94ok.
11:05
270
Нет комментариев. Ваш будет первым!