Поиск

1991 Aziza Mustafa Zadeh - Aziza Mustafa Zadeh {Sony, Columbia 468286 2} [CD]

1991 Aziza Mustafa Zadeh - Aziza Mustafa Zadeh {Sony, Columbia 468286 2} [CD]
Стили:
Дата издания диска:
15 апреля 1991
Издатель (лейбл):
Номер по каталогу:
COL 468286 2
Носитель:
CD
Тип рипа:
image+.cue
Аудиокодек:
FLAC (*.flac)
Битрейт аудио:
lossless
Время звучания:
01:13:59
Наличие сканов:
только обложка

Треклист:

01. Quiet Alone 3:37
02. Tea On The Carpet 4:04
03. Cemetery 6:49
04. Inspiration 4:39
05. Reflection 4:06
06. Oriental Fantasy 11:14
07. Blue Day 4:14
08. Character 5:18
09. Aziza's Dream 4:50
10. Chargah 5:08
11. My Ballad 4:17
12. I Cannot Sleep 6:48
13. Moment 0:46
14. Exprompt 2:03
15. Two Candles 5:59

Состав:
Лог создания рипа
Exact Audio Copy V1.0 beta 1 from 15. November 2010
EAC extraction logfile from 16. December 2010, 19:57
Aziza Mustafa Zadeh / Aziza Mustafa Zadeh (468286 2)
Used drive  : TEAC    DV-W516GDM   Adapter: 0  ID: 1
Read mode               : Secure
Utilize accurate stream : Yes
Defeat audio cache      : Yes
Make use of C2 pointers : No
Read offset correction                      : 6
Overread into Lead-In and Lead-Out          : No
Fill up missing offset samples with silence : Yes
Delete leading and trailing silent blocks   : No
Null samples used in CRC calculations       : Yes
Used interface                              : Native Win32 interface for Win NT & 2000
Used output format              : User Defined Encoder
Selected bitrate                : 896 kBit/s
Quality                         : High
Add ID3 tag                     : No
Command line compressor         : C:\Program Files\Exact Audio Copy 1.0\Flac\flac.exe
Additional command line options : -8 -V %s
TOC of the extracted CD
     Track |   Start  |  Length  | Start sector | End sector
    ---------------------------------------------------------
        1  |  0:00.00 |  3:38.70 |         0    |    16419
        2  |  3:38.70 |  4:05.00 |     16420    |    34794
        3  |  7:43.70 |  6:51.05 |     34795    |    65624
        4  | 14:35.00 |  4:38.62 |     65625    |    86536
        5  | 19:13.62 |  4:06.68 |     86537    |   105054
        6  | 23:20.55 | 11:16.55 |    105055    |   155809
        7  | 34:37.35 |  4:16.12 |    155810    |   175021
        8  | 38:53.47 |  5:18.03 |    175022    |   198874
        9  | 44:11.50 |  4:50.52 |    198875    |   220676
       10  | 49:02.27 |  5:09.18 |    220677    |   243869
       11  | 54:11.45 |  4:17.25 |    243870    |   263169
       12  | 58:28.70 |  6:47.67 |    263170    |   293761
       13  | 65:16.62 |  0:47.10 |    293762    |   297296
       14  | 66:03.72 |  2:02.60 |    297297    |   306506
       15  | 68:06.57 |  5:58.45 |    306507    |   333401
Range status and errors
Selected range
     Filename C:\Olaf der Weisse\Aziza Mustafa Zadeh . 1991 . Aziza Mustafa Zadeh (468286 2)\Aziza Mustafa Zadeh - Aziza Mustafa Zadeh (468286 2).wav
     Peak level 100.0 %
     Extraction speed 0.1 X
     Range quality 99.9 %
     Test CRC 69A84255
     Copy CRC 69A84255
     Copy OK
No errors occurred
AccurateRip summary
Track  1  accurately ripped (confidence 17)  [68F887F5]
Track  2  accurately ripped (confidence 17)  [D38350E5]
Track  3  accurately ripped (confidence 17)  [4055A04A]
Track  4  accurately ripped (confidence 17)  [6CCEA389]
Track  5  accurately ripped (confidence 17)  [41E0C7A2]
Track  6  accurately ripped (confidence 17)  [629B1E10]
Track  7  accurately ripped (confidence 17)  [A0AA2510]
Track  8  accurately ripped (confidence 17)  [97B4D45C]
Track  9  accurately ripped (confidence 16)  [8BF39668]
Track 10  accurately ripped (confidence 17)  [D9E0BFFE]
Track 11  accurately ripped (confidence 17)  [F3624166]
Track 12  accurately ripped (confidence 17)  [C077F408]
Track 13  accurately ripped (confidence 17)  [4D51A9C7]
Track 14  accurately ripped (confidence 17)  [E6A8C8FF]
Track 15  accurately ripped (confidence 17)  [D84EB655]
All tracks accurately ripped
End of status report
23:00
402
Нет комментариев. Ваш будет первым!