Поиск

1990 Teddy Wilson And His Orchestra - 1934-1935 {The Chronological Classics 508} [CD]

1990 Teddy Wilson And His Orchestra - 1934-1935 {The Chronological Classics 508} [CD]
Стили:
Издатель (лейбл):
Номер по каталогу:
508
Страна-производитель диска (релиза):
France
Треклист:

01 - Somebody Loves Me 3:06
02 - Sweet and Simple 3:23
03 - Liza (All the Clouds'll Roll Away) 3:08
04 - Rosetta 3:08
05 - I Wished on the Moon 3:08
06 - What a Little Moonlight Can Do 3:02
07 - Miss Brown to You 3:03
08 - A Sunbonnet Blue (And a Little Straw Hat) 2:55
09 - What a Night, What a Moon, What a Girl 2:59
10 - I'm Painting the Town Red 3:01
11 - It's Too Hot for Words 2:49
12 - Sweet Lorraine 3:10
13 - Liza (All the Clouds'll Roll Away) 2:39
14 - Every Now and Then 3:18
15 - It Never Dawned on Me 3:12
16 - Liza (All the Clouds'll Roll Away) 3:00
17 - Rosetta 2:56
18 - Twenty-Four Hours a Day 3:04
19 - Yankee Doodle Never Went to Town 2:47
20 - Eeny Meeny Meiny Mo 3:16
21 - If You Were Mine 3:14
22 - I Found a Dream 3:09
23 - On Treasure Island 2:55

Доп. инфо:

Год выпуска диска: 1990
Аудио кодек: FLAC
Тип рипа: tracks+.cue
Битрейт аудио: lossless
Продолжительность: 69:28

Источник: Demonoid.com

Лог создания рипа
EAC extraction logfile from 26. January 2009, 1:18 for CD
Teddy Wilson And His Orchestra / 1934 - 1935
Used drive : PLEXTOR DVDR PX-810SA Adapter: 4 ID: 1
Read mode : Secure with NO C2, accurate stream, disable cache
Read offset correction : 48
Overread into Lead-In and Lead-Out : No
Used output format : C:\Program Files\FLAC\flac.exe (User Defined Encoder)
128 kBit/s
Additional command line options : -V -8 -T "artist=%a" -T "title=%t" -T "album=%g" -T "date=%y" -T "tracknumber=%n" -T "genre=%m" %s
Other options :
Fill up missing offset samples with silence : Yes
Delete leading and trailing silent blocks : No
Native Win32 interface for Win NT & 2000
Track 1
Filename C:\Teddy508\01 - Somebody Loves Me.wav
Pre-gap length 0:00:02.44
Peak level 91.6 %
Track quality 100.0 %
Test CRC 731E660A
Copy CRC 731E660A
Copy OK
Track 2
Filename C:\Teddy508\02 - Sweet And Simple.wav
Pre-gap length 0:00:01.24
Peak level 100.0 %
Track quality 100.0 %
Test CRC D4289B98
Copy CRC D4289B98
Copy OK
Track 3
Filename C:\Teddy508\03 - Liza.wav
Pre-gap length 0:00:01.13
Peak level 99.9 %
Track quality 99.9 %
Test CRC 101885E9
Copy CRC 101885E9
Copy OK
Track 4
Filename C:\Teddy508\04 - Rosetta.wav
Pre-gap length 0:00:01.13
Peak level 95.6 %
Track quality 100.0 %
Test CRC AD50DF47
Copy CRC AD50DF47
Copy OK
Track 5
Filename C:\Teddy508\05 - I Wished On The Moon.wav
Pre-gap length 0:00:01.10
Peak level 99.1 %
Track quality 100.0 %
Test CRC 1AA7A6AF
Copy CRC 1AA7A6AF
Copy OK
Track 6
Filename C:\Teddy508\06 - What A Little Moonlight Can Do.wav
Pre-gap length 0:00:00.82
Peak level 99.9 %
Track quality 100.0 %
Test CRC 63DA5E69
Copy CRC 63DA5E69
Copy OK
Track 7
Filename C:\Teddy508\07 - Miss Brown To You.wav
Pre-gap length 0:00:01.13
Peak level 95.7 %
Track quality 100.0 %
Test CRC 0395E908
Copy CRC 0395E908
Copy OK
Track 8
Filename C:\Teddy508\08 - A Sunbonnet Blue.wav
Pre-gap length 0:00:00.96
Peak level 86.2 %
Track quality 100.0 %
Test CRC 8BA7F49A
Copy CRC 8BA7F49A
Copy OK
Track 9
Filename C:\Teddy508\09 - What A Night, What A Moon, What A Girl.wav
Pre-gap length 0:00:01.40
Peak level 100.0 %
Track quality 100.0 %
Test CRC AB758751
Copy CRC AB758751
Copy OK
Track 10
Filename C:\Teddy508\10 - I'm Painting The Town Red.wav
Pre-gap length 0:00:00.80
Peak level 95.8 %
Track quality 100.0 %
Test CRC 15783378
Copy CRC 15783378
Copy OK
Track 11
Filename C:\Teddy508\11 - It's Too Hot For Words.wav
Pre-gap length 0:00:01.13
Peak level 93.7 %
Track quality 100.0 %
Test CRC 455054CD
Copy CRC 455054CD
Copy OK
Track 12
Filename C:\Teddy508\12 - Sweet Lorraine.wav
Pre-gap length 0:00:00.93
Peak level 92.8 %
Track quality 100.0 %
Test CRC 03E30643
Copy CRC 03E30643
Copy OK
Track 13
Filename C:\Teddy508\13 - Liza.wav
Pre-gap length 0:00:02.84
Peak level 87.9 %
Track quality 100.0 %
Test CRC 8E585048
Copy CRC 8E585048
Copy OK
Track 14
Filename C:\Teddy508\14 - Every Now And Then.wav
Pre-gap length 0:00:01.26
Peak level 93.2 %
Track quality 100.0 %
Test CRC AD66C40D
Copy CRC AD66C40D
Copy OK
Track 15
Filename C:\Teddy508\15 - It Never Dawned On Me.wav
Pre-gap length 0:00:01.00
Peak level 87.2 %
Track quality 100.0 %
Test CRC A1C2C1AF
Copy CRC A1C2C1AF
Copy OK
Track 16
Filename C:\Teddy508\16 - Liza.wav
Pre-gap length 0:00:01.17
Peak level 86.4 %
Track quality 100.0 %
Test CRC 3F13A023
Copy CRC 3F13A023
Copy OK
Track 17
Filename C:\Teddy508\17 - Rosetta.wav
Pre-gap length 0:00:00.96
Peak level 89.3 %
Track quality 100.0 %
Test CRC 0FD686EB
Copy CRC 0FD686EB
Copy OK
Track 18
Filename C:\Teddy508\18 - Twenty-Four Hours A Day.wav
Pre-gap length 0:00:01.06
Peak level 100.0 %
Track quality 100.0 %
Test CRC 520F8866
Copy CRC 520F8866
Copy OK
Track 19
Filename C:\Teddy508\19 - Yankee Doodle Never Went To Town.wav
Pre-gap length 0:00:00.86
Peak level 100.0 %
Track quality 99.9 %
Test CRC 746BB290
Copy CRC 746BB290
Copy OK
Track 20
Filename C:\Teddy508\20 - Eany Meeny Miny Mo.wav
Pre-gap length 0:00:01.20
Peak level 99.9 %
Track quality 100.0 %
Test CRC BF167918
Copy CRC BF167918
Copy OK
Track 21
Filename C:\Teddy508\21 - If You Were Mine.wav
Pre-gap length 0:00:00.93
Peak level 87.5 %
Track quality 99.9 %
Test CRC ECB6951B
Copy CRC ECB6951B
Copy OK
Track 22
Filename C:\Teddy508\22 - I Found A Dream.wav
Pre-gap length 0:00:01.22
Peak level 68.6 %
Track quality 99.9 %
Test CRC B52D3A51
Copy CRC B52D3A51
Copy OK
Track 23
Filename C:\Teddy508\23 - On Treasure Island.wav
Pre-gap length 0:00:00.80
Peak level 81.7 %
Track quality 100.0 %
Test CRC 77175045
Copy CRC 77175045
Copy OK
No errors occured
End of status report
Download available for power users only.
To become a power user - read FAQ.
10:07
516
Нет комментариев. Ваш будет первым!