Поиск

1990 Sammy Kaye - Best Of Big Bands {CBS 01-466622-10} [CD]

1990 Sammy Kaye - Best Of Big Bands {CBS 01-466622-10} [CD]
Треклист:

1. Daddy - 2:56 (В. Troup)
2. We'll Meet Again - 2:03 (R. Parker-Charles)
3. Please Don't Talk About Me When I'm Gone - 3:08 (S. Clare-S. Stept)
4. Blue Prelude - 3:00 (Jenkins-Bishop)
5. My Extraordinary Gal - 3:00 (Shand)
6. Tennessee Waltz - 3:01 (P. King-R. Stewart)
7. Honey - 2:58 (S. Simons-H. Gillespie-R. Whiting)
8. Sweet And Lovely - 2:34 (Tobias-Lemare-Arnheim)
9. Who? - 2:45 (Harbach-Hammerstein-Kern)
10. Three Bells - 3:16 (B. Reisfeld-J. Villard) Pending
11. Harbor Lights - 3:21 (J. Kennedy-H. Williams) Chappell & Co. Music
12. Get Out Those Old Records - 2:16 (C. Lombardo-J.J. Loeb)
13. Friends And Neighbors - 2:28 (M. Scott-M. Lockyer)
14. Threepenny Opera - 2:17 (В. Brecht-K. Weill) Pending
15. As Time Goes By - 3:03 (H. Hupfeld) Warner Bros. Inc.
16. I Ain't Lazy, I'm Just Dreamin' - 3:29 {D. Franklin)

Жанр: Big Band, Swing, Easy Listening, Vocal
Носитель: CD (compilation, archival)
Страна-производитель диска (релиза): USA
Год издания оригинала: 1990
Издатель (лейбл): CBS
Номер по каталогу: 01-466622-10
Страна исполнителя (группы) : USA
Аудио кодек: FLAC (*.flac)
Тип рипа: (tracks + .cue)
Битрейт аудио: lossless
Наличие сканов в содержимом раздачи: full scans, png, 300 dpi
Продолжительность: 46.05
Источник (релизер): Musicgate

Лог создания рипа
Exact Audio Copy V1.3 from 2. September 2016

EAC extraction logfile from 3. September 2017, 15:38

Sammy Kaye / Best Of Big Bands

Used drive  : HL-DT-STDVDRAM GSA-T50N   Adapter: 1  ID: 0

Read mode               : Secure
Utilize accurate stream : Yes
Defeat audio cache      : Yes
Make use of C2 pointers : No

Read offset correction                      : 667
Overread into Lead-In and Lead-Out          : No
Fill up missing offset samples with silence : Yes
Delete leading and trailing silent blocks   : No
Null samples used in CRC calculations       : Yes
Used interface                              : Native Win32 interface for Win NT & 2000
Gap handling                                : Appended to previous track

Used output format              : User Defined Encoder
Selected bitrate                : 1024 kBit/s
Quality                         : High
Add ID3 tag                     : No
Command line compressor         : C:\Program Files\Exact Audio Copy\Flac\flac.exe
Additional command line options : -V -8 -T "Genre=%genre%" -T "Artist=%artist%" -T "Title=%title%" -T "Album=%albumtitle%" -T "Date=%year%" -T "Tracknumber=%tracknr%" %source% -o %dest%

TOC of the extracted CD

     Track |   Start  |  Length  | Start sector | End sector
    ---------------------------------------------------------
        1  |  0:00.00 |  2:58.55 |         0    |    13404
        2  |  2:58.55 |  2:05.32 |     13405    |    22811
        3  |  5:04.12 |  3:11.20 |     22812    |    37156
        4  |  8:15.32 |  3:03.25 |     37157    |    50906
        5  | 11:18.57 |  3:02.53 |     50907    |    64609
        6  | 14:21.35 |  3:03.22 |     64610    |    78356
        7  | 17:24.57 |  3:00.15 |     78357    |    91871
        8  | 20:24.72 |  2:36.48 |     91872    |   103619
        9  | 23:01.45 |  2:46.72 |    103620    |   116141
       10  | 25:48.42 |  3:19.08 |    116142    |   131074
       11  | 29:07.50 |  3:22.47 |    131075    |   146271
       12  | 32:30.22 |  2:17.35 |    146272    |   156581
       13  | 34:47.57 |  2:30.23 |    156582    |   167854
       14  | 37:18.05 |  2:19.27 |    167855    |   178306
       15  | 39:37.32 |  3:05.38 |    178307    |   192219
       16  | 42:42.70 |  3:20.05 |    192220    |   207224

Track  1

     Filename C:\music\MG rips\Sammy Kaye - Best Of Big Bands - 1990 (CBS 01-466622-10) [FLAC]\01 - Daddy.wav

     Pre-gap length  0:00:02.00

     Peak level 93.4 %
     Extraction speed 2.3 X
     Track quality 100.0 %
     Test CRC 0490D000
     Copy CRC 0490D000
     Track not present in AccurateRip database
     Copy OK

Track  2

     Filename C:\music\MG rips\Sammy Kaye - Best Of Big Bands - 1990 (CBS 01-466622-10) [FLAC]\02 - We'll meet again.wav

     Peak level 53.7 %
     Extraction speed 2.2 X
     Track quality 100.0 %
     Test CRC C579619F
     Copy CRC C579619F
     Track not present in AccurateRip database
     Copy OK

Track  3

     Filename C:\music\MG rips\Sammy Kaye - Best Of Big Bands - 1990 (CBS 01-466622-10) [FLAC]\03 - Please don't talk about me when I'm gone.wav

     Peak level 92.3 %
     Extraction speed 2.6 X
     Track quality 100.0 %
     Test CRC F095B626
     Copy CRC F095B626
     Track not present in AccurateRip database
     Copy OK

Track  4

     Filename C:\music\MG rips\Sammy Kaye - Best Of Big Bands - 1990 (CBS 01-466622-10) [FLAC]\04 - Blue prelude.wav

     Pre-gap length  0:00:02.50

     Peak level 100.0 %
     Extraction speed 2.8 X
     Track quality 100.0 %
     Test CRC 66A9EA84
     Copy CRC 66A9EA84
     Track not present in AccurateRip database
     Copy OK

Track  5

     Filename C:\music\MG rips\Sammy Kaye - Best Of Big Bands - 1990 (CBS 01-466622-10) [FLAC]\05 - My extraordinary Gal.wav

     Pre-gap length  0:00:02.09

     Peak level 66.6 %
     Extraction speed 2.9 X
     Track quality 100.0 %
     Test CRC 9E898472
     Copy CRC 9E898472
     Track not present in AccurateRip database
     Copy OK

Track  6

     Filename C:\music\MG rips\Sammy Kaye - Best Of Big Bands - 1990 (CBS 01-466622-10) [FLAC]\06 - Tennessee waltz.wav

     Pre-gap length  0:00:02.18

     Peak level 45.4 %
     Extraction speed 3.0 X
     Track quality 100.0 %
     Test CRC 451BB138
     Copy CRC 451BB138
     Track not present in AccurateRip database
     Copy OK

Track  7

     Filename C:\music\MG rips\Sammy Kaye - Best Of Big Bands - 1990 (CBS 01-466622-10) [FLAC]\07 - Honey.wav

     Pre-gap length  0:00:01.60

     Peak level 58.9 %
     Extraction speed 3.1 X
     Track quality 100.0 %
     Test CRC FC7C0881
     Copy CRC FC7C0881
     Track not present in AccurateRip database
     Copy OK

Track  8

     Filename C:\music\MG rips\Sammy Kaye - Best Of Big Bands - 1990 (CBS 01-466622-10) [FLAC]\08 - Sweet and lovely.wav

     Peak level 43.3 %
     Extraction speed 3.1 X
     Track quality 100.0 %
     Test CRC 32662426
     Copy CRC 32662426
     Track not present in AccurateRip database
     Copy OK

Track  9

     Filename C:\music\MG rips\Sammy Kaye - Best Of Big Bands - 1990 (CBS 01-466622-10) [FLAC]\09 - Who.wav

     Peak level 80.2 %
     Extraction speed 2.7 X
     Track quality 99.9 %
     Test CRC 2ED2B223
     Copy CRC 2ED2B223
     Track not present in AccurateRip database
     Copy OK

Track 10

     Filename C:\music\MG rips\Sammy Kaye - Best Of Big Bands - 1990 (CBS 01-466622-10) [FLAC]\10 - Three bells.wav

     Peak level 74.0 %
     Extraction speed 3.6 X
     Track quality 100.0 %
     Test CRC 88A4D525
     Copy CRC 88A4D525
     Track not present in AccurateRip database
     Copy OK

Track 11

     Filename C:\music\MG rips\Sammy Kaye - Best Of Big Bands - 1990 (CBS 01-466622-10) [FLAC]\11 - Harbor lights.wav

     Peak level 66.0 %
     Extraction speed 3.8 X
     Track quality 100.0 %
     Test CRC 38240880
     Copy CRC 38240880
     Track not present in AccurateRip database
     Copy OK

Track 12

     Filename C:\music\MG rips\Sammy Kaye - Best Of Big Bands - 1990 (CBS 01-466622-10) [FLAC]\12 - Get out those old records.wav

     Peak level 81.5 %
     Extraction speed 2.9 X
     Track quality 99.9 %
     Test CRC D09EBB9B
     Copy CRC D09EBB9B
     Track not present in AccurateRip database
     Copy OK

Track 13

     Filename C:\music\MG rips\Sammy Kaye - Best Of Big Bands - 1990 (CBS 01-466622-10) [FLAC]\13 - Friends and neighbors.wav

     Peak level 64.2 %
     Extraction speed 3.7 X
     Track quality 100.0 %
     Test CRC 183695AE
     Copy CRC 183695AE
     Track not present in AccurateRip database
     Copy OK

Track 14

     Filename C:\music\MG rips\Sammy Kaye - Best Of Big Bands - 1990 (CBS 01-466622-10) [FLAC]\14 - Threepenny Opera.wav

     Peak level 57.8 %
     Extraction speed 3.7 X
     Track quality 100.0 %
     Test CRC 4F1C4019
     Copy CRC 4F1C4019
     Track not present in AccurateRip database
     Copy OK

Track 15

     Filename C:\music\MG rips\Sammy Kaye - Best Of Big Bands - 1990 (CBS 01-466622-10) [FLAC]\15 - As time goes by.wav

     Peak level 61.2 %
     Extraction speed 4.0 X
     Track quality 100.0 %
     Test CRC 7D1E2830
     Copy CRC 7D1E2830
     Track not present in AccurateRip database
     Copy OK

Track 16

     Filename C:\music\MG rips\Sammy Kaye - Best Of Big Bands - 1990 (CBS 01-466622-10) [FLAC]\16 - I ain't lazy, I'm just dreamin'.wav

     Peak level 55.2 %
     Extraction speed 4.1 X
     Track quality 100.0 %
     Test CRC E279E6E7
     Copy CRC E279E6E7
     Track not present in AccurateRip database
     Copy OK

None of the tracks are present in the AccurateRip database

No errors occurred

End of status report

==== Log checksum 395D6DBE0712F739EF325272B9EE884954FEF0AC995DDE157A865AB3916CD4C8 ====
Содержание индексной карты (.CUE)
REM GENRE Jazz
REM DATE 1990
REM DISCID DE0ACB10
REM COMMENT "ExactAudioCopy v1.3"
PERFORMER "Sammy Kaye"
TITLE "Best Of Big Bands"
REM COMPOSER ""
FILE "01 - Daddy.wav" WAVE
  TRACK 01 AUDIO
    TITLE "Daddy"
    PERFORMER "Sammy Kaye"
    REM COMPOSER ""
    INDEX 01 00:00:00
FILE "02 - We'll meet again.wav" WAVE
  TRACK 02 AUDIO
    TITLE "We'll meet again"
    PERFORMER "Sammy Kaye"
    REM COMPOSER ""
    INDEX 01 00:00:00
FILE "03 - Please don't talk about me when I'm gone.wav" WAVE
  TRACK 03 AUDIO
    TITLE "Please don't talk about me when I'm gone"
    PERFORMER "Sammy Kaye"
    REM COMPOSER ""
    INDEX 01 00:00:00
  TRACK 04 AUDIO
    TITLE "Blue prelude"
    PERFORMER "Sammy Kaye"
    REM COMPOSER ""
    INDEX 00 03:08:45
FILE "04 - Blue prelude.wav" WAVE
    INDEX 01 00:00:00
  TRACK 05 AUDIO
    TITLE "My extraordinary Gal"
    PERFORMER "Sammy Kaye"
    REM COMPOSER ""
    INDEX 00 03:01:16
FILE "05 - My extraordinary Gal.wav" WAVE
    INDEX 01 00:00:00
  TRACK 06 AUDIO
    TITLE "Tennessee waltz"
    PERFORMER "Sammy Kaye"
    REM COMPOSER ""
    INDEX 00 03:00:35
FILE "06 - Tennessee waltz.wav" WAVE
    INDEX 01 00:00:00
  TRACK 07 AUDIO
    TITLE "Honey"
    PERFORMER "Sammy Kaye"
    REM COMPOSER ""
    INDEX 00 03:01:37
FILE "07 - Honey.wav" WAVE
    INDEX 01 00:00:00
FILE "08 - Sweet and lovely.wav" WAVE
  TRACK 08 AUDIO
    TITLE "Sweet and lovely"
    PERFORMER "Sammy Kaye"
    REM COMPOSER ""
    INDEX 01 00:00:00
FILE "09 - Who.wav" WAVE
  TRACK 09 AUDIO
    TITLE "Who"
    PERFORMER "Sammy Kaye"
    REM COMPOSER ""
    INDEX 01 00:00:00
FILE "10 - Three bells.wav" WAVE
  TRACK 10 AUDIO
    TITLE "Three bells"
    PERFORMER "Sammy Kaye"
    REM COMPOSER ""
    INDEX 01 00:00:00
FILE "11 - Harbor lights.wav" WAVE
  TRACK 11 AUDIO
    TITLE "Harbor lights"
    PERFORMER "Sammy Kaye"
    REM COMPOSER ""
    INDEX 01 00:00:00
FILE "12 - Get out those old records.wav" WAVE
  TRACK 12 AUDIO
    TITLE "Get out those old records"
    PERFORMER "Sammy Kaye"
    REM COMPOSER ""
    INDEX 01 00:00:00
FILE "13 - Friends and neighbors.wav" WAVE
  TRACK 13 AUDIO
    TITLE "Friends and neighbors"
    PERFORMER "Sammy Kaye"
    REM COMPOSER ""
    INDEX 01 00:00:00
FILE "14 - Threepenny Opera.wav" WAVE
  TRACK 14 AUDIO
    TITLE "Threepenny Opera"
    PERFORMER "Sammy Kaye"
    REM COMPOSER ""
    INDEX 01 00:00:00
FILE "15 - As time goes by.wav" WAVE
  TRACK 15 AUDIO
    TITLE "As time goes by"
    PERFORMER "Sammy Kaye"
    REM COMPOSER ""
    INDEX 01 00:00:00
FILE "16 - I ain't lazy, I'm just dreamin'.wav" WAVE
  TRACK 16 AUDIO
    TITLE "I ain't lazy, I'm just dreamin'"
    PERFORMER "Sammy Kaye"
    REM COMPOSER ""
    INDEX 01 00:00:00
Лог проверки качества
foobar2000 1.3.10 / Замер динамического диапазона (DR) 1.1.1
Дата отчёта:  2017-09-11 11:41:57

--------------------------------------------------------------------------------
Анализ:   Sammy Kaye / Best Of Big Bands
--------------------------------------------------------------------------------

DR         Пики         RMS           Продолжительность трека
--------------------------------------------------------------------------------
DR14      -0.59 дБ   -17.03 дБ      2:59 01-Daddy
DR11      -5.39 дБ   -19.02 дБ      2:05 02-We'll meet again
DR13      -0.69 дБ   -16.21 дБ      3:11 03-Please don't talk about me when I'm gone
DR11       0.00 дБ   -14.14 дБ      3:03 04-Blue prelude
DR12      -3.53 дБ   -17.69 дБ      3:03 05-My extraordinary Gal
DR10      -6.84 дБ   -19.24 дБ      3:03 06-Tennessee waltz
DR14      -4.59 дБ   -21.86 дБ      3:00 07-Honey
DR12      -7.25 дБ   -21.64 дБ      2:37 08-Sweet and lovely
DR12      -1.92 дБ   -16.89 дБ      2:47 09-Who
DR11      -2.61 дБ   -16.58 дБ      3:19 10-Three bells
DR11      -3.60 дБ   -17.55 дБ      3:23 11-Harbor lights
DR14      -1.77 дБ   -17.99 дБ      2:17 12-Get out those old records
DR13      -3.84 дБ   -18.65 дБ      2:30 13-Friends and neighbors
DR11      -4.75 дБ   -17.47 дБ      2:19 14-Threepenny Opera
DR10      -4.26 дБ   -17.94 дБ      3:06 15-As time goes by
DR10      -5.15 дБ   -16.71 дБ      3:20 16-I ain't lazy, I'm just dreamin'
--------------------------------------------------------------------------------

Количество треков: 16
Реальные значения DR: DR12

Частота:   44100 Гц
Каналов:   2
Разрядность:   16
Битрейт:   401 кбит/с
Кодек:   FLAC
================================================================================
Скриншот спектра частот
1990 Sammy Kaye - Best Of Big Bands {CBS 01-466622-10} [CD] 01990 Sammy Kaye - Best Of Big Bands {CBS 01-466622-10} [CD] 11990 Sammy Kaye - Best Of Big Bands {CBS 01-466622-10} [CD] 2
По всем вопросам пишите личное сообщение пользователю M0p94ok.
12:20
506
Нет комментариев. Ваш будет первым!