Поиск

1990 Ryuichi Sakamoto - We Love You {Virgin Japan VJCP-1417} [CD]

1990 Ryuichi Sakamoto - We Love You {Virgin Japan VJCP-1417} [CD]
Треклист:

01. We Love You (4:58)
02. Strong Relax (2:03)
03. Merry Christmas Mr. Lawrence (Drives R.S.) (7:33)

Жанр: Abstract, Synth-Pop, Experimental
Носитель: CD
Страна-производитель диска (релиза): Япония
Год издания: 1990
Издатель (лейбл): Virgin Japan
Номер по каталогу: VJCP-1417
Аудиокодек: FLAC (*.flac)
Тип рипа: tracks
Битрейт аудио: lossless
Продолжительность: 00:14:34
Источник: demonoid
Наличие сканов в содержимом раздачи: сетевые

Лог создания рипа
Exact Audio Copy V1.0 beta 3 from 29. August 2011

EAC extraction logfile from 6. April 2013, 18:10

Ryuichi Sakamoto / We Love You

Used drive  : MATSHITABD-MLT UJ230AS   Adapter: 0  ID: 0

Read mode               : Secure
Utilize accurate stream : Yes
Defeat audio cache      : Yes
Make use of C2 pointers : No

Read offset correction                      : 102
Overread into Lead-In and Lead-Out          : No
Fill up missing offset samples with silence : Yes
Delete leading and trailing silent blocks   : No
Null samples used in CRC calculations       : Yes
Used interface                              : Native Win32 interface for Win NT & 2000
Gap handling                                : Appended to previous track

Used output format              : User Defined Encoder
Selected bitrate                : 1024 kBit/s
Quality                         : High
Add ID3 tag                     : No
Command line compressor         : C:\Program Files\Exact Audio Copy\FLAC\FLAC.EXE
Additional command line options : -V -8 -T "ARTIST=%artist%" -T "TITLE=%title%" -T "ALBUM=%albumtitle%" -T "DATE=%year%" -T "TRACKNUMBER=%tracknr%" -T "GENRE=%genre%" -T "COMMENT=%comment%" %hascover%--picture="%coverfile%"%hascover% %source% -o %dest%

TOC of the extracted CD

     Track |   Start  |  Length  | Start sector | End sector
    ---------------------------------------------------------
        1  |  0:00.37 |  4:57.70 |        37    |    22381
        2  |  4:58.32 |  2:02.55 |     22382    |    31586
        3  |  7:01.12 |  7:33.25 |     31587    |    65586

Track  1

     Filename C:\EAC Rips\Ryuichi Sakamoto - 1990 - We Love You\01 - We Love You.wav

     Pre-gap length  0:00:02.49

     Peak level 96.7 %
     Extraction speed 2.5 X
     Track quality 100.0 %
     Test CRC 3D16C0E9
     Copy CRC 3D16C0E9
     Accurately ripped (confidence 2)  [99F38D8D]  (AR v1)
     Copy OK

Track  2

     Filename C:\EAC Rips\Ryuichi Sakamoto - 1990 - We Love You\02 - Strong Relax.wav

     Peak level 100.0 %
     Extraction speed 2.4 X
     Track quality 100.0 %
     Test CRC 0C3EC331
     Copy CRC 0C3EC331
     Accurately ripped (confidence 2)  [D3F7FBF8]  (AR v1)
     Copy OK

Track  3

     Filename C:\EAC Rips\Ryuichi Sakamoto - 1990 - We Love You\03 - Merry Christmas Mr. Lawrence - Drives R.S..wav

     Pre-gap length  0:00:01.25

     Peak level 95.5 %
     Extraction speed 2.9 X
     Track quality 99.9 %
     Test CRC 6DDE6632
     Copy CRC 6DDE6632
     Accurately ripped (confidence 2)  [2D2C3CB1]  (AR v1)
     Copy OK

All tracks accurately ripped

No errors occurred

End of status report

==== Log checksum 2FBD7AC4F3A2781B8B00B0D0510D1CB05FD9F987881EBD52D431C3AE05D5C275 ====
Лог проверки качества
-----------------------

DON'T MODIFY THIS FILE

-----------------------

PERFORMER: auCDtect Task Manager, ver. 1.6.0 RC1 build 1.6.0.1
Copyright (c) 2008-2010 y-soft. All rights reserved
http://y-soft.org

ANALYZER: auCDtect: CD records authenticity detector, version 0.8.2
Copyright (c) 2004 Oleg Berngardt. All rights reserved.
Copyright (c) 2004 Alexander Djourik. All rights reserved.

FILE: 03 - Merry Christmas Mr. Lawrence (Drives R.S.).flac
  Size: 46218383 Hash: 7D0257D5656E271A4B1E71D61754F9A8 Accuracy: -m0
  Conclusion: MPEG 95%
  Signature: 2056A7DD970806E61CD1D450A198B3F5809180CE
FILE: 02 - Strong Relax.flac
  Size: 12398917 Hash: 2A28BD8E51F93F4C19B06D17C5065852 Accuracy: -m0
  Conclusion: CDDA 100%
  Signature: 5B9CF0666D6FA366A537ACA500C32D6A1D426069
FILE: 01 - We Love You.flac
  Size: 32893069 Hash: 2DCDDE4F288F5AE5D350BEDECEA5BC1C Accuracy: -m0
  Conclusion: CDDA 76%
  Signature: 79BD5929023C11D5E8B667C3E646B4E8C184E1DC
Скриншот спектра частот
1990 Ryuichi Sakamoto - We Love You {Virgin Japan VJCP-1417} [CD] 0
Download available for power users only.
To become a power user - read FAQ.
07:11
472
Нет комментариев. Ваш будет первым!