Поиск

1990 Nick Brignola - On a Different Level {Reservoir} [CD]

1990 Nick Brignola - On a Different Level {Reservoir} [CD]
Стили:
Издатель (лейбл):
Треклист:
Nick Brignola / On a Different Level
Жанр: Hard Bop, Baritone saxophone
Страна-производитель диска: USA / Japan (?)
Год издания диска: 1990
Издатель (лейбл): Reservoir
Номер по каталогу: RSR CD 112
Страна: USA
Аудиокодек: FLAC (*.flac)
Тип рипа: tracks+.cue
Битрейт аудио: lossless
Продолжительность: 1:02:43
Источник (релизер): Собственный оригинальный CD
Наличие сканов в содержимом раздачи: нет
Треклист:
1. Tears Inside (Coleman) 5:21
2. Hot House (Dameron) 10:40
3. Duke Ellington's Sound of Love (Mingus) 8:25
4. All the Things You Are (Kern) 6:19
5. Backwoods Song (Holland) 3:54
6. Key Largo (Carter, Suessdorf) 6:57
7. Sophisticated Lady (Ellington) 8:52
8. Softly, As in a Morning Sunrise (Romberg) 11:49
 
Состав
Nick Brignola (baritone saxophone)
Kenny Barron (piano)
Dave Holland (bass)
Jack DeJohnette (drums)
Доп. информация:
Digital Recording September 25, 1989
at Van Gelder Recording Studio
Englewood Cliffs, NJ
 
 
(вкладыш)
 
 
 
Об альбоме
Review by Scott Yanow
Baritonist Nick Brignola is in top form throughout this often roaring quartet date. Teamed with pianist Kenny Barron, bassist Dave Holland, and drummer Jack DeJohnette, Brignola tears into such numbers as Ornette Coleman's "Tears Inside," "Hot House," "All the Things You Are," and a lengthy "Softly, as in a Morning Sunrise."
Brignola's inventive improvisations, huge sound, and powerful drive show that he was one of jazz's greatest baritone saxophonists, and this CD is a perfect showcase for his talents.
 
 
Лог создания рипа: December 6, 2011
Exact Audio Copy V1.0 beta 3 from 29. August 2011
EAC extraction logfile from 6. December 2011, 0:40
Nick Brignola / On a Different Level
Used drive  : TSSTcorpCD/DVDW TS-L532A   Adapter: 1  ID: 0
Read mode               : Secure
Utilize accurate stream : Yes
Defeat audio cache      : Yes
Make use of C2 pointers : No
Read offset correction                      : 116
Overread into Lead-In and Lead-Out          : No
Fill up missing offset samples with silence : Yes
Delete leading and trailing silent blocks   : No
Null samples used in CRC calculations       : Yes
Used interface                              : Native Win32 interface for Win NT & 2000
Gap handling                                : Appended to previous track
Used output format              : User Defined Encoder
Selected bitrate                : 768 kBit/s
Quality                         : High
Add ID3 tag                     : No
Command line compressor         : C:\Program Files\Exact Audio Copy\FLAC\FLAC.EXE
Additional command line options : -6 -V -T "ARTIST=%artist%" -T "TITLE=%title%" -T "ALBUM=%albumtitle%" -T "DATE=%year%" -T "TRACKNUMBER=%tracknr%" -T "GENRE=%genre%" -T "COMMENT=%comment%" -T "BAND=%albuminterpret%" -T "ALBUMARTIST=%albuminterpret%" -T "COMPOSER=%composer%" %haslyrics%--tag-from-file=LYRICS="%lyricsfile%"%haslyrics% -T "DISCNUMBER=%cdnumber%" -T "TOTALDISCS=%totalcds%" -T "TOTALTRACKS=%numtracks%" %hascover%--picture="%coverfile%"%hascover% %source% -o %dest%
TOC of the extracted CD
     Track |   Start  |  Length  | Start sector | End sector
    ---------------------------------------------------------
        1  |  0:00.37 |  5:24.25 |        37    |    24361
        2  |  5:24.62 | 10:42.43 |     24362    |    72554
        3  | 16:07.30 |  8:28.62 |     72555    |   110716
        4  | 24:36.17 |  6:22.45 |    110717    |   139411
        5  | 30:58.62 |  3:57.43 |    139412    |   157229
        6  | 34:56.30 |  7:01.07 |    157230    |   188811
        7  | 41:57.37 |  8:56.03 |    188812    |   229014
        8  | 50:53.40 | 11:50.22 |    229015    |   282286
Track  1
     Filename C:\Downloads\01 - Tears Inside.wav
     Pre-gap length  0:00:02.37
     Peak level 90.8 %
     Extraction speed 7.9 X
     Track quality 99.9 %
     Test CRC 35E16DDA
     Copy CRC 35E16DDA
     Track not present in AccurateRip database
     Copy OK
Track  2
     Filename C:\Downloads\02 - Hot House.wav
     Pre-gap length  0:00:02.72
     Peak level 90.6 %
     Extraction speed 12.5 X
     Track quality 100.0 %
     Test CRC 11D9FAB7
     Copy CRC 11D9FAB7
     Track not present in AccurateRip database
     Copy OK
Track  3
     Filename C:\Downloads\03 - Duke Ellington's Sound of Love.wav
     Pre-gap length  0:00:02.37
     Peak level 90.5 %
     Extraction speed 12.7 X
     Track quality 100.0 %
     Test CRC C29BA130
     Copy CRC C29BA130
     Track not present in AccurateRip database
     Copy OK
Track  4
     Filename C:\Downloads\04 - All the Things You Are.wav
     Pre-gap length  0:00:03.00
     Peak level 90.7 %
     Extraction speed 15.6 X
     Track quality 100.0 %
     Test CRC 1C8D3015
     Copy CRC 1C8D3015
     Track not present in AccurateRip database
     Copy OK
Track  5
     Filename C:\Downloads\05 - Backwoods Song.wav
     Pre-gap length  0:00:03.22
     Peak level 90.4 %
     Extraction speed 16.3 X
     Track quality 100.0 %
     Test CRC 8EAC22B6
     Copy CRC 8EAC22B6
     Track not present in AccurateRip database
     Copy OK
Track  6
     Filename C:\Downloads\06 - Key Largo.wav
     Pre-gap length  0:00:03.17
     Peak level 90.5 %
     Extraction speed 16.1 X
     Track quality 100.0 %
     Test CRC 84AFB356
     Copy CRC 84AFB356
     Track not present in AccurateRip database
     Copy OK
Track  7
     Filename C:\Downloads\07 - Sophisticated Lady.wav
     Pre-gap length  0:00:03.27
     Peak level 90.7 %
     Extraction speed 16.6 X
     Track quality 100.0 %
     Test CRC BC12F5D0
     Copy CRC BC12F5D0
     Track not present in AccurateRip database
     Copy OK
Track  8
     Filename C:\Downloads\08 - Softly, As in a Morning Sunrise.wav
     Pre-gap length  0:00:03.45
     Peak level 90.5 %
     Extraction speed 17.4 X
     Track quality 100.0 %
     Test CRC C96B836E
     Copy CRC C96B836E
     Track not present in AccurateRip database
     Copy OK
None of the tracks are present in the AccurateRip database
No errors occurred
End of status report
==== Log checksum 28D31FE7101D2DBA75DD1B93805F5BE6434A7A5DDD0A9D7B6A281E885CF3070B ====
 
 
Содержание индексной карты (.CUE)
REM GENRE Jazz
REM DATE 1989
REM DISCID 790EB308
REM COMMENT "ExactAudioCopy v1.0b3"
PERFORMER "Nick Brignola"
TITLE "On a Different Level"
FILE "01 - Tears Inside.wav" WAVE
  TRACK 01 AUDIO
    TITLE "Tears Inside"
    PERFORMER "Nick Brignola"
    PREGAP 00:00:37
    INDEX 01 00:00:00
  TRACK 02 AUDIO
    TITLE "Hot House"
    PERFORMER "Nick Brignola"
    INDEX 00 05:21:28
FILE "02 - Hot House.wav" WAVE
    INDEX 01 00:00:00
  TRACK 03 AUDIO
    TITLE "Duke Ellington's Sound of Love"
    PERFORMER "Nick Brignola"
    INDEX 00 10:40:06
FILE "03 - Duke Ellington's Sound of Love.wav" WAVE
    INDEX 01 00:00:00
  TRACK 04 AUDIO
    TITLE "All the Things You Are"
    PERFORMER "Nick Brignola"
    INDEX 00 08:25:62
FILE "04 - All the Things You Are.wav" WAVE
    INDEX 01 00:00:00
  TRACK 05 AUDIO
    TITLE "Backwoods Song"
    PERFORMER "Nick Brignola"
    INDEX 00 06:19:23
FILE "05 - Backwoods Song.wav" WAVE
    INDEX 01 00:00:00
  TRACK 06 AUDIO
    TITLE "Key Largo"
    PERFORMER "Nick Brignola"
    INDEX 00 03:54:26
FILE "06 - Key Largo.wav" WAVE
    INDEX 01 00:00:00
  TRACK 07 AUDIO
    TITLE "Sophisticated Lady"
    PERFORMER "Nick Brignola"
    INDEX 00 06:57:55
FILE "07 - Sophisticated Lady.wav" WAVE
    INDEX 01 00:00:00
  TRACK 08 AUDIO
    TITLE "Softly, As in a Morning Sunrise"
    PERFORMER "Nick Brignola"
    INDEX 00 08:52:33
FILE "08 - Softly, As in a Morning Sunrise.wav" WAVE
    INDEX 01 00:00:00
Приватный:
Нет (DHT включён)
Размер:
375.04 Мб (393,253,164 байт) » файлов: 13
Участники:
0 раздают, 0 качают (0 участников всего)
Внешние участники:
3 раздают, 1 качают (4 участников всего) [ Обновить ]
For power users only: no seeders - write to support@pro-jazz.com. Для power user: нет сидеров - пишите на support@pro-jazz.com.
18:08
132
Нет комментариев. Ваш будет первым!