Поиск

1990 Kip Hanrahan - Tenderness (2008) {American Clavé} [DSD64 ISO]

1990 Kip Hanrahan - Tenderness (2008) {American Clavé} [DSD64 ISO]
Стили:
Место записи:
RPM Sound Studios, New York, NY; Skyline Studios, New York, NY; Sorcerer SOund, New York, NY; Sound Ideas Studios, New York, NY; Sound On Sound Recording, Inc., New York, NY
Номер по каталогу:
EWSAC-1016
Носитель:
SACD
Формат:
DSD
Тип рипа:
image
Контейнер:
ISO (*.iso)
Количество каналов:
2.0
Разрядность/ЧД:
64 (2,8 MHz/1 Bit)
Битрейт аудио:
lossless
Время звучания:
01:15:15
Наличие сканов:
только обложка

01. Faith in the Pants, Not in the Prick
02. When I Lose Myself in the Darkness and Pain of Love, No, This Love
03. She Turned So That Maybe a Third of Her Face Was in This Fuckin' Beautiful Half-Light
04. At the Same Time, as the Subway Train Was Pulling Out of the Station
05. I Told Him "I Don't Have to Be Beaten to Be Understood"
06. Look, the Moon
07. Half of Sex Is Fear
08. Gillian's Folk Song
09. History
10. There Was Something About His Anger That Was So...Inaccessible to Me
11. If I Knew How To, If I Knew What Muscles to Relax
12. You're No Pimp, and I'm Certainly No Whore
13. Deep Summer
14. Look, the Moon
15. In Place of an Epilog: Lullabye for my Daughter
16. In Place of a Morale: Geography

Состав:
  • Bass – Andy Gonzalez
  • Bass [Electric] – Fernando Saunders, Sting
  • Drums [Traps] – Andrew Cyrille, Ignacio Berroa, Marvin "Smitty" Smith, Robbie Ameen*
  • Guitar – Leo Nocentelli
  • Percussion – Cecilia Engelhardt, Kip Hanrahan
  • Percussion [Congas, Quinto] – Giovanni Hidalgo
  • Percussion [Congas] – Milton Cardona, Richie Flores
  • Piano – Don Pullen
  • Saxophone [Tenor] – Chico Freeman
  • Trumpet – Alfredo Armentereos*
  • Violin – Alfredo Triff
  • Voice [First Person Singular, Female] – Carmen Lundy, Diahnne Abbott, Penabaz
  • Voice [First Person Singular, Male] – Fernando Saunders, Kip Hanrahan, Sting
Лог проверки качества
foobar2000 1.6.8 / Dynamic Range Meter 1.1.1
log date: 2021-12-19 17:25:41
--------------------------------------------------------------------------------
Analyzed: KIP HANRAHAN / TENDERNESS
--------------------------------------------------------------------------------
DR         Peak         RMS     Duration Track
--------------------------------------------------------------------------------
DR11      -5.82 dB   -18.83 dB      5:39 01-"...faith in the pants, not in the prick..." (Vallejo's Folk Song);
DR12      -5.93 dB   -20.10 dB      5:37 02-"...when I lose myself in the darkness and pain of love, no, this love..."
DR9       -5.93 dB   -16.81 dB      4:32 03-"...she turned so that maybe a third of her face was in this fuckin' beautiful half-light...";
DR8       -5.85 dB   -15.17 dB      4:29 04-"...at the same time, as the subway train was pulling out of the station..."
DR8       -5.90 dB   -15.67 dB      6:01 05-"...I told him 'I don't have to be beaten to be understood'...";
DR10      -6.04 dB   -18.19 dB      5:03 06-"...look, the moon..." (Diahnne's);
DR11      -6.00 dB   -19.03 dB      6:27 07-"...half of sex is fear...";
DR14      -6.14 dB   -22.12 dB      3:45 08-Gillian's Folk Song;
DR13      -6.12 dB   -22.26 dB      5:15 09-History;
DR9       -5.86 dB   -17.49 dB      5:46 10-"...there was something about his anger that was so...inaccessible to me..."
DR9       -5.79 dB   -16.02 dB      3:14 11-"...if I knew how to, if I knew what muscles to relax..."
DR13      -6.04 dB   -20.16 dB      1:32 12-"...you're no pimp, and I'm certainly no whore...";
DR9       -5.96 dB   -17.91 dB      4:14 13-Deep Summer;
DR11      -7.12 dB   -21.47 dB      5:44 14-"...look, the moon..." (Carmen's)
DR11      -6.59 dB   -21.79 dB      2:51 15-in place of an epilog: Lullaby for my Daughter;
DR10      -5.83 dB   -17.45 dB      5:07 16-in place of a morale: Geography
--------------------------------------------------------------------------------
Number of tracks:  16
Official DR value: DR11
Samplerate:        2822400 Hz / PCM Samplerate: 88200 Hz
Channels:          2
Bits per sample:   1
Bitrate:           5645 kbps
Codec:             DSD64
================================================================================
Приватный:
Нет (DHT включён)
Размер:
3.03 Гб (3,257,580,991 байт) » файлов: 6
Участники:
0 раздают, 0 качают (0 участников всего)
Внешние участники:
5 раздают, 2 качают (7 участников всего) [ Обновить ]
15:41
435
Нет комментариев. Ваш будет первым!