Вы используете незарегистрированную версию компонента "Вкладки"!

Поиск

1990 Kenny Barron - The Only One {Reservoir (City Hall) 115} [CD]

1990 Kenny Barron - The Only One {Reservoir (City Hall) 115} [CD]
Стили:
Дата записи диска:
6 июня 1990
Место записи:
Van Gelder Recording Studio, Englewood Cliffs, New Jersey, USA
Доп. инфо:

Год издания диска: 1994
Издатель (лейбл): Reservoir Records
Аудио кодек: WavPack (*.wv)
Тип рипа: image+.cue
Битрейт аудио: lossless
Продолжительность: 65:28
Источник (релизер): ffsf
Наличие сканов в содержимом раздачи: нет

Лог создания рипа
Exact Audio Copy V1.0 beta 1 from 15. November 2010
EAC extraction logfile from 28. November 2010, 13:08
Kenny Barron / The Only One
Used drive  : HL-DT-STDVDRAM GT20N   Adapter: 0  ID: 0
Read mode               : Secure
Utilize accurate stream : Yes
Defeat audio cache      : Yes
Make use of C2 pointers : No
Read offset correction                      : 667
Overread into Lead-In and Lead-Out          : No
Fill up missing offset samples with silence : Yes
Delete leading and trailing silent blocks   : No
Null samples used in CRC calculations       : Yes
Used interface                              : Installed external ASPI interface
Used output format : Internal WAV Routines
Sample format      : 44.100 Hz; 16 Bit; Stereo
TOC of the extracted CD
     Track |   Start  |  Length  | Start sector | End sector
    ---------------------------------------------------------
        1  |  0:00.37 |  7:12.63 |        37    |    32499
        2  |  7:13.25 |  6:57.00 |     32500    |    63774
        3  | 14:10.25 |  6:08.00 |     63775    |    91374
        4  | 20:18.25 |  5:11.00 |     91375    |   114699
        5  | 25:29.25 |  5:22.00 |    114700    |   138849
        6  | 30:51.25 |  6:27.00 |    138850    |   167874
        7  | 37:18.25 |  5:09.00 |    167875    |   191049
        8  | 42:27.25 |  5:16.00 |    191050    |   214749
        9  | 47:43.25 |  7:15.00 |    214750    |   247374
       10  | 54:58.25 |  5:54.00 |    247375    |   273924
       11  | 60:52.25 |  5:10.55 |    273925    |   297229
Range status and errors
Selected range
     Filename D:\EAC\Kenny Barron - The Only One.wav
     Peak level 90.8 %
     Extraction speed 0.3 X
     Range quality 100.0 %
     Test CRC 9CDFF820
     Copy CRC 9CDFF820
     Copy OK
No errors occurred
AccurateRip summary
Track  1  accurately ripped (confidence 2)  [8AC0BCDD]
Track  2  accurately ripped (confidence 2)  [5048A382]
Track  3  accurately ripped (confidence 2)  [D823498C]
Track  4  accurately ripped (confidence 2)  [9D990482]
Track  5  accurately ripped (confidence 2)  [23A2E7F6]
Track  6  accurately ripped (confidence 2)  [1CC993FE]
Track  7  accurately ripped (confidence 2)  [27417265]
Track  8  accurately ripped (confidence 2)  [DC8362E8]
Track  9  accurately ripped (confidence 2)  [7FA1B3D5]
Track 10  accurately ripped (confidence 2)  [8B382B1E]
Track 11  accurately ripped (confidence 2)  [44CA88E9]
All tracks accurately ripped
End of status report
==== Log checksum 62EB9241D2EB8BDFDD0E2610AF635C181EEFCC23A1EA76BD55D5041B80B8611D ====
Any questions - support@pro-jazz.com. Есть вопросы - support@pro-jazz.com
21:24
172
01:26