Поиск

1989 Eiji Kitamura Quintet - Japanese Jazz File {King 25DA 55}

1989 Eiji Kitamura Quintet - Japanese Jazz File {King 25DA 55}
Страна-производитель диска (релиза):
Japan
Дата издания диска:
21 августа 1989
Издатель (лейбл):
Номер по каталогу:
25DA 55
Носитель:
CD
Битрейт аудио:
lossless
Аудиокодек:
FLAC (*.flac)
Тип рипа:
image+.cue
Время звучания:
56:13
Наличие сканов:
  • нет
Релизёр (источник):
jazzluq
Треклист:

01. Cocktail for two (2:54)
02. Star dust (3:28)
03. Moon glow and theme from picnic (2:52)
04. You are my sunshine (2:29)
05. Indian love call (2:48)
06. Manhattan (2:34)
07. Mack the knife (2:56)
08. I`m gettin` sentimental over you (3:02)
09. Sentimental journey (2:45)
10. Isn`t it romantic? (2:38)
11. Softly, as in a morning sunshine (2:29)
12. Canadian sunset (2:54)
13. Danny boy (2:24)
14. Smoke get in your eyes (3:10)
15. My blue heaven (2:45)
16. On the sunny side of the street (3:19)
17. It`s a sin to tell a lie (2:54)
18. St. louis blues (3:03)
19. Let`s dance (2:26)
20. Autumn in New York (2:23)

Лог создания рипа
Exact Audio Copy V0.99 prebeta 5 from 4. May 2009

Отчёт EAC об извлечении, выполненном 26. сентября 2010, 16:44

Eiji Kitamura Quintet / Japanese Jazz File

Дисковод: SONY    DVD RW DRX-S70U   Adapter: 1  ID: 0

Режим чтения                 : Достоверность
Использование точного потока : Да
Отключение кэша аудио        : Да
Использование указателей C2  : Нет

Коррекция смещения при чтении                     : 48
Способность читать области Lead-in и Lead-out     : Нет
Заполнение пропущенных сэмплов тишиной            : Да
Удаление блоков с тишиной в начале и конце        : Нет
При вычислениях CRC использовались нулевые сэмплы : Да
Интерфейс                                         : Встроенный Win32-интерфейс для Win NT/2000

Выходной формат          : Пользовательский кодировщик
Выбранный битрейт        : 768 kBit/s
Качество                 : Высокий
Добавление ID3-тэга      : Нет
Утилита сжатия           : H:\Program Files\Exact Audio Copy\Flac\flac.exe
Дополнительные параметры : -6 -V -T "ARTIST=%a" -T "TITLE=%t" -T "ALBUM=%g" -T "DATE=%y" -T "TRACKNUMBER=%n" -T "GENRE=%m" -T "COMMENT=%e" %s -o %d

TOC извлечённого CD

     Трек |   Старт  | Длительность | Начальный сектор | Конечный сектор
    ---------------------------------------------------------------------
       1  |  0:00.00 |    2:53.52   |           0      |      13026
       2  |  2:53.52 |    3:27.60   |       13027      |      28611
       3  |  6:21.37 |    2:51.45   |       28612      |      41481
       4  |  9:13.07 |    2:29.00   |       41482      |      52656
       5  | 11:42.07 |    2:48.20   |       52657      |      65276
       6  | 14:30.27 |    2:33.68   |       65277      |      76819
       7  | 17:04.20 |    2:56.10   |       76820      |      90029
       8  | 20:00.30 |    3:01.55   |       90030      |     103659
       9  | 23:02.10 |    2:45.35   |      103660      |     116069
      10  | 25:47.45 |    2:38.17   |      116070      |     127936
      11  | 28:25.62 |    2:28.38   |      127937      |     139074
      12  | 30:54.25 |    2:54.07   |      139075      |     152131
      13  | 33:48.32 |    2:24.28   |      152132      |     162959
      14  | 36:12.60 |    3:10.10   |      162960      |     177219
      15  | 39:22.70 |    2:45.37   |      177220      |     189631
      16  | 42:08.32 |    3:19.23   |      189632      |     204579
      17  | 45:27.55 |    2:53.50   |      204580      |     217604
      18  | 48:21.30 |    3:02.50   |      217605      |     231304
      19  | 51:24.05 |    2:26.05   |      231305      |     242259
      20  | 53:50.10 |    2:22.42   |      242260      |     252951

Характеристики диапазона извлечения и сообщения об ошибках

Выбранный диапазон

     Имя файла F:\Eiji Kitamura Quintet\Eiji Kitamura Quintet - Japanese Jazz File.wav

     Пиковый уровень 96.7 %
     Качество диапазона 99.9 %
     CRC теста 01B82381
     CRC копии 01B82381
     Копирование... OK

Ошибок не произошло

AccurateRip: сводка

Трек  1  нет в базе данных
Трек  2  нет в базе данных
Трек  3  нет в базе данных
Трек  4  нет в базе данных
Трек  5  нет в базе данных
Трек  6  нет в базе данных
Трек  7  нет в базе данных
Трек  8  нет в базе данных
Трек  9  нет в базе данных
Трек 10  нет в базе данных
Трек 11  нет в базе данных
Трек 12  нет в базе данных
Трек 13  нет в базе данных
Трек 14  нет в базе данных
Трек 15  нет в базе данных
Трек 16  нет в базе данных
Трек 17  нет в базе данных
Трек 18  нет в базе данных
Трек 19  нет в базе данных
Трек 20  нет в базе данных

Ни одного трека нет в базе AccurateRip

Конец отчёта
Содержание индексной карты (.CUE)
REM GENRE Jazz
REM DATE 1989
REM DISCID 060D2C14
REM COMMENT "ExactAudioCopy v0.99pb5"
PERFORMER "Eiji Kitamura Quintet"
TITLE "Japanese Jazz File"
FILE "Eiji Kitamura Quintet - Japanese Jazz File.flac" WAVE
  TRACK 01 AUDIO
    TITLE "Cocktail for two"
    PERFORMER "Eiji Kitamura Quintet"
    INDEX 01 00:00:00
  TRACK 02 AUDIO
    TITLE "Star dust"
    PERFORMER "Eiji Kitamura Quintet"
    INDEX 00 02:51:60
    INDEX 01 02:53:52
  TRACK 03 AUDIO
    TITLE "Moon glow and theme from picnic"
    PERFORMER "Eiji Kitamura Quintet"
    INDEX 00 06:19:32
    INDEX 01 06:21:37
  TRACK 04 AUDIO
    TITLE "You are my sunshine"
    PERFORMER "Eiji Kitamura Quintet"
    INDEX 00 09:11:02
    INDEX 01 09:13:07
  TRACK 05 AUDIO
    TITLE "Indian love call"
    PERFORMER "Eiji Kitamura Quintet"
    INDEX 00 11:40:07
    INDEX 01 11:42:07
  TRACK 06 AUDIO
    TITLE "Manhattan"
    PERFORMER "Eiji Kitamura Quintet"
    INDEX 00 14:28:17
    INDEX 01 14:30:27
  TRACK 07 AUDIO
    TITLE "Mack the knife"
    PERFORMER "Eiji Kitamura Quintet"
    INDEX 00 17:02:10
    INDEX 01 17:04:20
  TRACK 08 AUDIO
    TITLE "I`m gettin` sentimental over you"
    PERFORMER "Eiji Kitamura Quintet"
    INDEX 00 19:58:32
    INDEX 01 20:00:30
  TRACK 09 AUDIO
    TITLE "Sentimental journey"
    PERFORMER "Eiji Kitamura Quintet"
    INDEX 00 23:00:10
    INDEX 01 23:02:10
  TRACK 10 AUDIO
    TITLE "Isn`t it romantic?"
    PERFORMER "Eiji Kitamura Quintet"
    INDEX 00 25:45:45
    INDEX 01 25:47:45
  TRACK 11 AUDIO
    TITLE "Softly, as in a morning sunshine"
    PERFORMER "Eiji Kitamura Quintet"
    INDEX 00 28:23:50
    INDEX 01 28:25:62
  TRACK 12 AUDIO
    TITLE "Canadian sunset"
    PERFORMER "Eiji Kitamura Quintet"
    INDEX 00 30:52:15
    INDEX 01 30:54:25
  TRACK 13 AUDIO
    TITLE "Danny boy"
    PERFORMER "Eiji Kitamura Quintet"
    INDEX 00 33:46:15
    INDEX 01 33:48:32
  TRACK 14 AUDIO
    TITLE "Smoke get in your eyes"
    PERFORMER "Eiji Kitamura Quintet"
    INDEX 00 36:10:55
    INDEX 01 36:12:60
  TRACK 15 AUDIO
    TITLE "My blue heaven"
    PERFORMER "Eiji Kitamura Quintet"
    INDEX 00 39:20:65
    INDEX 01 39:22:70
  TRACK 16 AUDIO
    TITLE "On the sunny side of the street"
    PERFORMER "Eiji Kitamura Quintet"
    INDEX 00 42:06:30
    INDEX 01 42:08:32
  TRACK 17 AUDIO
    TITLE "It`s a sin to tell a lie"
    PERFORMER "Eiji Kitamura Quintet"
    INDEX 00 45:25:65
    INDEX 01 45:27:55
  TRACK 18 AUDIO
    TITLE "St. louis blues"
    PERFORMER "Eiji Kitamura Quintet"
    INDEX 00 48:19:05
    INDEX 01 48:21:30
  TRACK 19 AUDIO
    TITLE "Let`s dance"
    PERFORMER "Eiji Kitamura Quintet"
    INDEX 00 51:21:52
    INDEX 01 51:24:05
  TRACK 20 AUDIO
    TITLE "Autumn in New York"
    PERFORMER "Eiji Kitamura Quintet"
    INDEX 00 53:47:67
    INDEX 01 53:50:10
Лог проверки качества
AUDIOCHECKER v2.0 beta (build 457) - by Dester - opdester@freemail.hu
~~~~~~~~~~~~~~~~~~~~~~~~~~~~~~~~~~
-=== DO NOT EDIT THIS FILE! ===-

Path: ...\Eiji Kitamura Quintet

1 -=- Eiji Kitamura Quintet - Japanese Jazz File.flac -=- CDDA (100%)

26951252
Приватный:
Нет (DHT включён)
Размер:
301.62 Мб (316,272,076 байт) » файлов: 4
Участники:
0 раздают, 0 качают (0 участников всего)
Внешние участники:
2 раздают, 1 качают (3 участников всего) [ Обновить ]
20:54
77
RSS
Нет комментариев. Ваш будет первым!