Вы используете незарегистрированную версию компонента "Вкладки"!

Поиск

1989 Dexter Gordon - Come Rain or Come Shine {Jazz Hour JHR 73508} [CD]

1989 Dexter Gordon - Come Rain or Come Shine {Jazz Hour JHR 73508} [CD]
Стили:
Доп. инфо:

Носитель: CD
Страна-производитель диска (релиза): EU
Год издания: 1989
Издатель (лейбл): Jazz Hour
Номер по каталогу: JHR 73508
Аудиокодек: FLAC (*.flac)
Тип рипа: tracks+.cue
Битрейт аудио: lossless
Продолжительность: 01:03:19
Источник: What.CD
Наличие сканов в содержимом раздачи: нет

Лог создания рипа
Exact Audio Copy V1.0 beta 3 from 29. August 2011

EAC extraction logfile from 22. January 2015, 19:27

Dexter Gordon / Come Rain Or Come Shine

Used drive  : ATAPI   iHAS124   W   Adapter: 0  ID: 0

Read mode               : Secure
Utilize accurate stream : Yes
Defeat audio cache      : Yes
Make use of C2 pointers : No

Read offset correction                      : 48
Overread into Lead-In and Lead-Out          : No
Fill up missing offset samples with silence : Yes
Delete leading and trailing silent blocks   : No
Null samples used in CRC calculations       : Yes
Used interface                              : Native Win32 interface for Win NT & 2000
Gap handling                                : Appended to previous track

Used output format              : User Defined Encoder
Selected bitrate                : 1024 kBit/s
Quality                         : High
Add ID3 tag                     : No
Command line compressor         : C:\Program Files (x86)\Exact Audio Copy\FLAC\FLAC.EXE
Additional command line options : -8 -V -T "ARTIST=%artist%" -T "TITLE=%title%" -T "ALBUM=%albumtitle%" -T "DATE=%year%" -T "TRACKNUMBER=%tracknr%" -T "GENRE=%genre%" -T "COMMENT=%comment%" -T "BAND=%albuminterpret%" -T "ALBUMARTIST=%albuminterpret%" -T "COMPOSER=%composer%" %haslyrics%--tag-from-file=LYRICS="%lyricsfile%"%haslyrics% -T "DISCNUMBER=%cdnumber%" -T "TOTALDISCS=%totalcds%" -T "TOTALTRACKS=%numtracks%" %hascover%--picture="%coverfile%"%hascover% %source% -o %dest%

TOC of the extracted CD

     Track |   Start  |  Length  | Start sector | End sector
    ---------------------------------------------------------
        1  |  0:00.33 |  7:12.30 |        33    |    32462
        2  |  7:12.63 |  9:14.27 |     32463    |    74039
        3  | 16:27.15 |  8:38.23 |     74040    |   112912
        4  | 25:05.38 | 14:56.10 |    112913    |   180122
        5  | 40:01.48 | 11:00.72 |    180123    |   229694
        6  | 51:02.45 | 12:18.30 |    229695    |   285074

Track  1

     Filename E:\EAC\Dexter Gordon - 1967 - Come Rain Or Come Shine\01 - Doxy.wav

     Pre-gap length  0:00:02.33

     Peak level 96.8 %
     Extraction speed 5.0 X
     Track quality 100.0 %
     Test CRC 4155B8F3
     Copy CRC 4155B8F3
     Accurately ripped (confidence 2)  [4B3F6CAF]  (AR v2)
     Copy OK

Track  2

     Filename E:\EAC\Dexter Gordon - 1967 - Come Rain Or Come Shine\02 - Misty.wav

     Pre-gap length  0:00:03.58

     Peak level 42.2 %
     Extraction speed 6.1 X
     Track quality 100.0 %
     Test CRC 87134C69
     Copy CRC 87134C69
     Accurately ripped (confidence 2)  [B1D7C654]  (AR v2)
     Copy OK

Track  3

     Filename E:\EAC\Dexter Gordon - 1967 - Come Rain Or Come Shine\03 - For All We Know.wav

     Pre-gap length  0:00:03.12

     Peak level 81.3 %
     Extraction speed 6.9 X
     Track quality 100.0 %
     Test CRC FD982EA5
     Copy CRC FD982EA5
     Accurately ripped (confidence 2)  [54A1A63B]  (AR v2)
     Copy OK

Track  4

     Filename E:\EAC\Dexter Gordon - 1967 - Come Rain Or Come Shine\04 - But Not For Me.wav

     Pre-gap length  0:00:02.68

     Peak level 96.9 %
     Extraction speed 8.1 X
     Track quality 100.0 %
     Test CRC 82F2746D
     Copy CRC 82F2746D
     Accurately ripped (confidence 4)  [3EE246AB]  (AR v1)
     Copy OK

Track  5

     Filename E:\EAC\Dexter Gordon - 1967 - Come Rain Or Come Shine\05 - Come Rain Or Come Shine.wav

     Pre-gap length  0:00:02.70

     Peak level 89.0 %
     Extraction speed 8.9 X
     Track quality 100.0 %
     Test CRC 55922EFE
     Copy CRC 55922EFE
     Accurately ripped (confidence 2)  [85987B37]  (AR v2)
     Copy OK

Track  6

     Filename E:\EAC\Dexter Gordon - 1967 - Come Rain Or Come Shine\06 - There Will Never Be Another You.wav

     Pre-gap length  0:00:03.05

     Peak level 97.7 %
     Extraction speed 9.5 X
     Track quality 100.0 %
     Test CRC FF391B4D
     Copy CRC FF391B4D
     Accurately ripped (confidence 2)  [6FD21176]  (AR v2)
     Copy OK

All tracks accurately ripped

No errors occurred

End of status report

==== Log checksum F1FA4CF9CCE7290ED80DF7A1C5334ADF6405A9EF3CC7CFC8BBAE05CA3EF246CE ====
Содержание индексной карты (.CUE)
REM GENRE Jazz
REM DATE 1967
REM DISCID 4A0ED906
REM COMMENT "ExactAudioCopy v1.0b3"
PERFORMER "Dexter Gordon"
TITLE "Come Rain or Come Shine"
FILE "01 - Doxy.wav" WAVE
  TRACK 01 AUDIO
    TITLE "Doxy"
    PERFORMER "Dexter Gordon"
    PREGAP 00:00:33
    INDEX 01 00:00:00
  TRACK 02 AUDIO
    TITLE "Misty"
    PERFORMER "Dexter Gordon"
    INDEX 00 07:08:47
FILE "02 - Misty.wav" WAVE
    INDEX 01 00:00:00
  TRACK 03 AUDIO
    TITLE "For All We Know"
    PERFORMER "Dexter Gordon"
    INDEX 00 09:11:15
FILE "03 - For All We Know.wav" WAVE
    INDEX 01 00:00:00
  TRACK 04 AUDIO
    TITLE "But Not for Me"
    PERFORMER "Dexter Gordon"
    INDEX 00 08:35:30
FILE "04 - But Not for Me.wav" WAVE
    INDEX 01 00:00:00
  TRACK 05 AUDIO
    TITLE "Come Rain or Come Shine"
    PERFORMER "Dexter Gordon"
    INDEX 00 14:53:15
FILE "05 - Come Rain or Come Shine.wav" WAVE
    INDEX 01 00:00:00
  TRACK 06 AUDIO
    TITLE "There Will Never Be Another You"
    PERFORMER "Dexter Gordon"
    INDEX 00 10:57:67
FILE "06 - There Will Never Be Another You.wav" WAVE
    INDEX 01 00:00:00
Лог проверки качества
[CUETools log; Date: 14.02.2019 13:57:56; Version: 2.1.6]
Pregap length 00:00:33.
[CTDB TOCID: VjmwCF4KsV6vDmJOTtE_.RMYN7Y-] found.
Track | CTDB Status
  1   | (19/19) Accurately ripped
  2   | (19/19) Accurately ripped
  3   | (17/19) Accurately ripped, or (2/19) differs in 1 samples @04:45:07
  4   | (19/19) Accurately ripped
  5   | (19/19) Accurately ripped
  6   | (17/19) Accurately ripped
[AccurateRip ID: 000df3a6-004c7e31-4a0ed906] found.
Track   [  CRC   |   V2   ] Status
 01     [9cc5d19b|4b3f6caf] (05+03/21) Accurately ripped
 02     [ceeaee94|b1d7c654] (05+03/19) Accurately ripped
 03     [bcbf0dba|54a1a63b] (05+03/19) Accurately ripped
 04     [3ee246ab|f61011a9] (04+02/17) Accurately ripped
 05     [c9afb2e3|85987b37] (04+03/18) Accurately ripped
 06     [f65453ea|6fd21176] (03+02/15) Accurately ripped
Offsetted by 272:
 01     [43b2fd2b] (03/21) Accurately ripped
 02     [f42ecaa4] (03/19) Accurately ripped
 03     [63e6dfaa] (03/19) Accurately ripped
 04     [d3bdeceb] (03/17) Accurately ripped
 05     [aaf1b583] (03/18) Accurately ripped
 06     [6f16026a] (03/15) Accurately ripped
Offsetted by 201:
 01     [3a0241cc] (00/21) No match (V2 was not tested)
 02     [7a749b8d] (00/19) No match (V2 was not tested)
 03     [41ae5ca1] (00/19) No match (V2 was not tested)
 04     [12885aef] (00/17) No match (V2 was not tested)
 05     [df343e3d] (00/18) No match (V2 was not tested)
 06     [38091992] (00/15) No match (V2 was not tested)

Track Peak [ CRC32  ] [W/O NULL] [  LOG   ]
 --   97,7 [908F6D5D] [159248BA]
 01   96,8 [4155B8F3] [A03E01FC]   CRC32
 02   42,2 [87134C69] [0828EF71]   CRC32
 03   81,3 [FD982EA5] [5BD37977]   CRC32
 04   96,9 [82F2746D] [B2AA4CD4]   CRC32
 05   89,0 [55922EFE] [4E50CE68]   CRC32
 06   97,7 [FF391B4D] [3C353FC1]   CRC32
Any questions - support@pro-jazz.com. Есть вопросы - support@pro-jazz.com
22:13
421
Нет комментариев. Ваш будет первым!