Поиск

1989 Arthur Prysock - Compact Jazz {Verve} [CD]

1989 Arthur Prysock - Compact Jazz {Verve} [CD]
Стили:
Издатель (лейбл):
Битрейт аудио:
lossless

01. I Worry About You (2:19)
02. Good Morning Blues (3:16)
03. It's Too Late Baby (Baby Too Late) (3:17)
04. I Wonder Where Our Love Has Gone (2:42)
05. Close Your Eyes (2:33)
06. Stella by Starlight (2:33)
07. My Funny Valentine (3:57)
08. Because (3:13)
09. Fly Me to the Moon (3:28)
10. When I Fall in Love (3:19)
11. You've Changed (3:43)
12. Ghost of a Chance (3:46)
13. I Left My Heart in San Francisco (3:06)
14. Let's Start All Over Again (2:23)
15. I've Got the Blues So Bad (3:17)
16. My Mother's Eyes (3:43)

Лог создания рипа
Exact Audio Copy V1.0 beta 3 from 29. August 2011
EAC extraction logfile from 21. June 2015, 1:15
Arthur Prysock / Compact Jazz
Used drive  : ATAPI   iHAS324   W   Adapter: 0  ID: 0
Read mode               : Secure
Utilize accurate stream : Yes
Defeat audio cache      : Yes
Make use of C2 pointers : No
Read offset correction                      : 48
Overread into Lead-In and Lead-Out          : No
Fill up missing offset samples with silence : Yes
Delete leading and trailing silent blocks   : No
Null samples used in CRC calculations       : Yes
Used interface                              : Native Win32 interface for Win NT & 2000
Gap handling                                : Appended to previous track
Used output format              : User Defined Encoder
Selected bitrate                : 1024 kBit/s
Quality                         : High
Add ID3 tag                     : No
Command line compressor         : C:\Program Files (x86)\Exact Audio Copy\Flac\flac.exe
Additional command line options : -8 -V -T "ARTIST=%artist%" -T "TITLE=%title%" -T "ALBUM=%albumtitle%" -T "DATE=%year%" -T "TRACKNUMBER=%tracknr%" -T "GENRE=%genre%" -T "PERFORMER=%albuminterpret%" -T "COMPOSER=%composer%" %haslyrics%--tag-from-file=LYRICS="%lyricsfile%"%haslyrics% -T "ALBUMARTIST=%albumartist%" -T "DISCNUMBER=%cdnumber%" -T "TOTALDISCS=%totalcds%" -T "TOTALTRACKS=%numtracks%" -T "COMMENT=%comment%" %source% -o %dest%
TOC of the extracted CD
     Track |   Start  |  Length  | Start sector | End sector
    ---------------------------------------------------------
        1  |  0:00.32 |  2:19.23 |        32    |    10479
        2  |  2:19.55 |  3:16.37 |     10480    |    25216
        3  |  5:36.17 |  3:16.50 |     25217    |    39966
        4  |  8:52.67 |  2:41.38 |     39967    |    52079
        5  | 11:34.30 |  2:33.15 |     52080    |    63569
        6  | 14:07.45 |  2:33.05 |     63570    |    75049
        7  | 16:40.50 |  3:57.05 |     75050    |    92829
        8  | 20:37.55 |  3:12.65 |     92830    |   107294
        9  | 23:50.45 |  3:28.10 |    107295    |   122904
       10  | 27:18.55 |  3:19.12 |    122905    |   137841
       11  | 30:37.67 |  3:42.68 |    137842    |   154559
       12  | 34:20.60 |  3:46.20 |    154560    |   171529
       13  | 38:07.05 |  3:05.65 |    171530    |   185469
       14  | 41:12.70 |  2:23.02 |    185470    |   196196
       15  | 43:35.72 |  3:16.63 |    196197    |   210959
       16  | 46:52.60 |  3:43.00 |    210960    |   227684
Track  1
     Filename C:\Music\EAC Rips\Arthur Prysock - Compact Jazz - (1989) [FLAC] {841 130-2}\01. I Worry About You.wav
     Pre-gap length  0:00:02.32
     Peak level 100.0 %
     Extraction speed 4.6 X
     Track quality 100.0 %
     Test CRC FCA7D3D8
     Copy CRC FCA7D3D8
     Cannot be verified as accurate (confidence 2)  [0F88B7A3], AccurateRip returned [00AFF015]  (AR v2)
     Copy OK
Track  2
     Filename C:\Music\EAC Rips\Arthur Prysock - Compact Jazz - (1989) [FLAC] {841 130-2}\02. Good Morning Blues.wav
     Pre-gap length  0:00:02.63
     Peak level 90.1 %
     Extraction speed 5.1 X
     Track quality 100.0 %
     Test CRC 2BD0DDB9
     Copy CRC 2BD0DDB9
     Cannot be verified as accurate (confidence 2)  [E189FE51], AccurateRip returned [EDEAEF83]  (AR v2)
     Copy OK
Track  3
     Filename C:\Music\EAC Rips\Arthur Prysock - Compact Jazz - (1989) [FLAC] {841 130-2}\03. It's Too Late Baby (Baby Too Late).wav
     Pre-gap length  0:00:02.62
     Peak level 72.3 %
     Extraction speed 5.5 X
     Track quality 100.0 %
     Test CRC B152B586
     Copy CRC B152B586
     Cannot be verified as accurate (confidence 2)  [22FB0535], AccurateRip returned [27FB4EC8]  (AR v2)
     Copy OK
Track  4
     Filename C:\Music\EAC Rips\Arthur Prysock - Compact Jazz - (1989) [FLAC] {841 130-2}\04. I Wonder Where Our Love Has Gone.wav
     Pre-gap length  0:00:03.25
     Peak level 81.3 %
     Extraction speed 5.6 X
     Track quality 100.0 %
     Test CRC B9B58C8D
     Copy CRC B9B58C8D
     Cannot be verified as accurate (confidence 2)  [10012B5F], AccurateRip returned [06FD2CA5]  (AR v2)
     Copy OK
Track  5
     Filename C:\Music\EAC Rips\Arthur Prysock - Compact Jazz - (1989) [FLAC] {841 130-2}\05. Close Your Eyes.wav
     Pre-gap length  0:00:02.63
     Peak level 73.1 %
     Extraction speed 5.8 X
     Track quality 100.0 %
     Test CRC 06ECD4D7
     Copy CRC 06ECD4D7
     Cannot be verified as accurate (confidence 2)  [83CDE049], AccurateRip returned [0E2BCECD]  (AR v2)
     Copy OK
Track  6
     Filename C:\Music\EAC Rips\Arthur Prysock - Compact Jazz - (1989) [FLAC] {841 130-2}\06. Stella By Starlight.wav
     Pre-gap length  0:00:03.25
     Peak level 100.0 %
     Extraction speed 3.7 X
     Track quality 99.9 %
     Test CRC 6007F709
     Copy CRC 6007F709
     Cannot be verified as accurate (confidence 2)  [E5C11FF2], AccurateRip returned [499FA9A5]  (AR v2)
     Copy OK
Track  7
     Filename C:\Music\EAC Rips\Arthur Prysock - Compact Jazz - (1989) [FLAC] {841 130-2}\07. My Funny Valentine.wav
     Pre-gap length  0:00:02.63
     Peak level 74.5 %
     Extraction speed 4.7 X
     Track quality 99.9 %
     Test CRC 9601F9C3
     Copy CRC 9601F9C3
     Cannot be verified as accurate (confidence 2)  [C64C6576], AccurateRip returned [4A38936C]  (AR v2)
     Copy OK
Track  8
     Filename C:\Music\EAC Rips\Arthur Prysock - Compact Jazz - (1989) [FLAC] {841 130-2}\08. Because.wav
     Pre-gap length  0:00:02.63
     Peak level 97.6 %
     Extraction speed 4.4 X
     Track quality 99.9 %
     Test CRC BDC96CDC
     Copy CRC BDC96CDC
     Cannot be verified as accurate (confidence 2)  [EEE74978], AccurateRip returned [752FE078]  (AR v2)
     Copy OK
Track  9
     Filename C:\Music\EAC Rips\Arthur Prysock - Compact Jazz - (1989) [FLAC] {841 130-2}\09. Fly Me to the Moon.wav
     Pre-gap length  0:00:01.65
     Peak level 78.9 %
     Extraction speed 4.7 X
     Track quality 99.9 %
     Test CRC 9C646429
     Copy CRC 9C646429
     Cannot be verified as accurate (confidence 2)  [098E05CC], AccurateRip returned [EB292B2E]  (AR v2)
     Copy OK
Track 10
     Filename C:\Music\EAC Rips\Arthur Prysock - Compact Jazz - (1989) [FLAC] {841 130-2}\10. When I Fall in Love.wav
     Pre-gap length  0:00:03.63
     Peak level 73.0 %
     Extraction speed 7.5 X
     Track quality 100.0 %
     Test CRC 6E1506DC
     Copy CRC 6E1506DC
     Cannot be verified as accurate (confidence 2)  [C67882C2], AccurateRip returned [B3CD89F5]  (AR v2)
     Copy OK
Track 11
     Filename C:\Music\EAC Rips\Arthur Prysock - Compact Jazz - (1989) [FLAC] {841 130-2}\11. You've Changed.wav
     Pre-gap length  0:00:02.50
     Peak level 82.7 %
     Extraction speed 7.9 X
     Track quality 100.0 %
     Test CRC 9741DC80
     Copy CRC 9741DC80
     Cannot be verified as accurate (confidence 2)  [D4FDEA42], AccurateRip returned [6F3D2135]  (AR v2)
     Copy OK
Track 12
     Filename C:\Music\EAC Rips\Arthur Prysock - Compact Jazz - (1989) [FLAC] {841 130-2}\12. Ghost of a Chance.wav
     Pre-gap length  0:00:02.63
     Peak level 46.2 %
     Extraction speed 8.1 X
     Track quality 100.0 %
     Test CRC 170271B4
     Copy CRC 170271B4
     Cannot be verified as accurate (confidence 2)  [7DAAED0B], AccurateRip returned [AE731F40]  (AR v2)
     Copy OK
Track 13
     Filename C:\Music\EAC Rips\Arthur Prysock - Compact Jazz - (1989) [FLAC] {841 130-2}\13. I Left My Heart in San Francisco.wav
     Pre-gap length  0:00:02.63
     Peak level 80.2 %
     Extraction speed 8.1 X
     Track quality 100.0 %
     Test CRC 20EADFCC
     Copy CRC 20EADFCC
     Cannot be verified as accurate (confidence 2)  [8E5339B1], AccurateRip returned [7EC0F1C1]  (AR v2)
     Copy OK
Track 14
     Filename C:\Music\EAC Rips\Arthur Prysock - Compact Jazz - (1989) [FLAC] {841 130-2}\14. Let's Start All Over Again.wav
     Pre-gap length  0:00:03.63
     Peak level 78.6 %
     Extraction speed 7.9 X
     Track quality 100.0 %
     Test CRC 5BC7FEBA
     Copy CRC 5BC7FEBA
     Cannot be verified as accurate (confidence 2)  [29F17F8E], AccurateRip returned [B359ECBD]  (AR v2)
     Copy OK
Track 15
     Filename C:\Music\EAC Rips\Arthur Prysock - Compact Jazz - (1989) [FLAC] {841 130-2}\15. I've Got the Blues So Bad.wav
     Pre-gap length  0:00:02.62
     Peak level 77.4 %
     Extraction speed 5.4 X
     Track quality 99.9 %
     Test CRC 267316A5
     Copy CRC 267316A5
     Cannot be verified as accurate (confidence 2)  [321F9C7E], AccurateRip returned [539CCA6A]  (AR v2)
     Copy OK
Track 16
     Filename C:\Music\EAC Rips\Arthur Prysock - Compact Jazz - (1989) [FLAC] {841 130-2}\16. My Mother's Eyes.wav
     Pre-gap length  0:00:02.63
     Peak level 80.1 %
     Extraction speed 8.9 X
     Track quality 100.0 %
     Test CRC F82FC599
     Copy CRC F82FC599
     Cannot be verified as accurate (confidence 2)  [A32EDEB5], AccurateRip returned [B25E91AA]  (AR v2)
     Copy OK
No tracks could be verified as accurate
You may have a different pressing from the one(s) in the database
No errors occurred
End of status report
==== Log checksum CE00D3273141C61DD4E10E058797C2A4EFA8A1AF25E7BBD2CA2DAACA132CA87A ====
Приватный:
Нет (DHT включён)
Размер:
269.03 Мб (282,097,284 байт) » файлов: 22
Участники:
0 раздают, 0 качают (0 участников всего)
Внешние участники:
--- [ Обновить ]
23:12
433
Нет комментариев. Ваш будет первым!