Поиск

1988 Airto Moreira & Flora Purim - The Colours of Life (2016) {In+Out} [24-44.1]

1988 Airto Moreira & Flora Purim - The Colours of Life (2016) {In+Out} [24-44.1]
Место записи:
Sound Design Studio, Santa Barbara, California, USA; Calren Studios, Freiburg, Germany
Дата переиздания диска:
30 августа 2016
Издатель (лейбл):
Номер по каталогу:
001
Носитель:
WEB
Формат:
PCM
Тип рипа:
tracks
Контейнер:
FLAC (*.flac)
Количество каналов:
2.0
Разрядность/ЧД:
24/44,1
Битрейт аудио:
lossless
Время звучания:
00:37:27
Наличие сканов:
только обложка

Треклист:

01 - Berimbau do Sul 04:25
02 - Espiritual Rain Forest 07:12
03 - Anatelio 04:23
04 - Treme Terra 04:20
05 - Partido Alto 05:04
06 - Bingo 05:13
07 - Escape 02:49
08 - Misterios 04:01

Состав:
  • Gary Meek, saxophone, flutes
  • Raul De Souza, trombone
  • Jose Neto, guitar
  • Oscar Castro Neves, guitar
  • Roland Bautista, guitar
  • Marcos Silva, keyboards
  • Jorge Dalto, keyboards
  • Alphonso Johnsonbass
  • Bob Harrison, bass
  • Randy Tico, bass
  • Michael Shapiro, drums
  • Airto Moreira, percussion, drums, vocals
  • Don Alias, percussion
  • Frank Colon, percussion
  • Giovanni Hidalgo, percussion
  • Laudir Oliveira, percussion
  • Flora Purim, vocals
  • Produced by Frank Kleinschmidt
Лог проверки качества
foobar2000 1.4.3 / Dynamic Range Meter 1.1.1
log date: 2021-06-27 12:25:49

--------------------------------------------------------------------------------
Analyzed: Airto Moreira & Flora Purim / The Colours of Life
--------------------------------------------------------------------------------

DR         Peak         RMS     Duration Track
--------------------------------------------------------------------------------
DR10      -1.05 dB   -12.09 dB      4:26 01-Berimbau do Sul
DR12      -1.05 dB   -15.98 dB      7:12 02-Espiritual Rain Forest
DR10      -1.05 dB   -12.61 dB      4:24 03-Anatelio
DR11      -1.05 dB   -13.99 dB      4:20 04-Treme Terra
DR10      -1.05 dB   -12.87 dB      5:05 05-Partido Alto
DR10      -1.05 dB   -13.62 dB      5:14 06-Bingo
DR9       -1.05 dB   -12.23 dB      2:50 07-Escape
DR10      -1.05 dB   -13.17 dB      4:01 08-Misterios
--------------------------------------------------------------------------------

Number of tracks:  8
Official DR value: DR10

Samplerate:        44100 Hz
Channels:          2
Bits per sample:   24
Bitrate:           1644 kbps
Codec:             FLAC
================================================================================
По всем вопросам пишите личное сообщение пользователю M0p94ok.
14:01
255
Нет комментариев. Ваш будет первым!