Поиск

1987 Roberto Gatto - Notes {Gala inak 8805} [CD]

1987 Roberto Gatto - Notes {Gala inak 8805} [CD]
Стили:
Битрейт аудио:
lossless

Треклист:

01 Streggae (5:55)
02 Town Street (4:34)
03 Green Ice Blue Eyes (5:00)
04 Can You Make It (4:52)
05 A Long Step (4:14)
06 First Blues (4:12)
07 Pedals (5:55)
08 La Coda Del Gatto (5:14)

Recorded January-March 1987 at SoundVideoCat, Roma, Italy

Доп. инфо:

Носитель: CD
Страна-производитель диска (релиза): italy
Год издания: 1987
Издатель (лейбл): Gala
Номер по каталогу: inak 8805 cd
Страна исполнителя (группы): italy
Аудиокодек: FLAC (*.flac)
Тип рипа: tracks+.cue
Продолжительность: 00:40:03

Лог создания рипа
Exact Audio Copy V1.0 beta 3 from 29. August 2011

EAC extraction logfile from 11. February 2013, 0:31

Unknown Artist / Unknown Title

Used drive  : Optiarc DVD RW AD-7930H   Adapter: 0  ID: 1

Read mode               : Secure
Utilize accurate stream : Yes
Defeat audio cache      : Yes
Make use of C2 pointers : No

Read offset correction                      : 48
Overread into Lead-In and Lead-Out          : No
Fill up missing offset samples with silence : Yes
Delete leading and trailing silent blocks   : No
Null samples used in CRC calculations       : Yes
Used interface                              : Native Win32 interface for Win NT & 2000
Gap handling                                : Appended to previous track

Used output format : Internal WAV Routines
Sample format      : 44.100 Hz; 16 Bit; Stereo

TOC of the extracted CD

     Track |   Start  |  Length  | Start sector | End sector
    ---------------------------------------------------------
        1  |  0:00.00 |  6:02.02 |         0    |    27151
        2  |  6:02.02 |  4:34.38 |     27152    |    47739
        3  | 10:36.40 |  5:00.32 |     47740    |    70271
        4  | 15:36.72 |  4:52.48 |     70272    |    92219
        5  | 20:29.45 |  4:14.35 |     92220    |   111304
        6  | 24:44.05 |  4:12.32 |    111305    |   130236
        7  | 28:56.37 |  5:55.23 |    130237    |   156884
        8  | 34:51.60 |  5:14.70 |    156885    |   180504

Track  1

     Filename C:\Users\Costantino\Music\carine02\01 Track01.wav

     Pre-gap length  0:00:02.00

     Peak level 65.1 %
     Extraction speed 1.2 X
     Track quality 100.0 %
     Test CRC B5323784
     Copy CRC B5323784
     Track not present in AccurateRip database
     Copy OK

Track  2

     Filename C:\Users\Costantino\Music\carine02\02 Track02.wav

     Pre-gap length  0:00:05.10

     Peak level 66.6 %
     Extraction speed 1.3 X
     Track quality 100.0 %
     Test CRC FDD95F58
     Copy CRC FDD95F58
     Track not present in AccurateRip database
     Copy OK

Track  3

     Filename C:\Users\Costantino\Music\carine02\03 Track03.wav

     Pre-gap length  0:00:04.00

     Peak level 52.0 %
     Extraction speed 1.3 X
     Track quality 99.9 %
     Test CRC 719E5C33
     Copy CRC 719E5C33
     Track not present in AccurateRip database
     Copy OK

Track  4

     Filename C:\Users\Costantino\Music\carine02\04 Track04.wav

     Pre-gap length  0:00:04.35

     Peak level 54.3 %
     Extraction speed 1.6 X
     Track quality 100.0 %
     Test CRC A705A05C
     Copy CRC A705A05C
     Track not present in AccurateRip database
     Copy OK

Track  5

     Filename C:\Users\Costantino\Music\carine02\05 Track05.wav

     Pre-gap length  0:00:09.65

     Peak level 73.2 %
     Extraction speed 1.7 X
     Track quality 100.0 %
     Test CRC 98784F4D
     Copy CRC 98784F4D
     Track not present in AccurateRip database
     Copy OK

Track  6

     Filename C:\Users\Costantino\Music\carine02\06 Track06.wav

     Pre-gap length  0:00:03.68

     Peak level 54.4 %
     Extraction speed 1.8 X
     Track quality 100.0 %
     Test CRC E2931F5F
     Copy CRC E2931F5F
     Track not present in AccurateRip database
     Copy OK

Track  7

     Filename C:\Users\Costantino\Music\carine02\07 Track07.wav

     Pre-gap length  0:00:04.32

     Peak level 62.9 %
     Extraction speed 2.0 X
     Track quality 100.0 %
     Test CRC C0D036F6
     Copy CRC C0D036F6
     Track not present in AccurateRip database
     Copy OK

Track  8

     Filename C:\Users\Costantino\Music\carine02\08 Track08.wav

     Pre-gap length  0:00:04.60

     Peak level 54.8 %
     Extraction speed 2.1 X
     Track quality 100.0 %
     Test CRC BD2BBD9E
     Copy CRC BD2BBD9E
     Track not present in AccurateRip database
     Copy OK

None of the tracks are present in the AccurateRip database

No errors occurred

End of status report

==== Log checksum C99E5641AAF85F23D5C790246222792277F745AC7D3CA6715D0C43C1F954E33A ====
Приватный:
Да (DHT отключён)
Размер:
253.91 Мб (266,240,817 байт) » файлов: 10
Участники:
0 раздают, 0 качают (0 участников всего)
Внешние участники:
--- [ Обновить ]
Никого нет на раздаче - пишите личное сообщение M0p94ok
No seeders - write personal message to M0p94ok
19:31
101
13:11