Поиск

1987 Kirk Lightsey Quartet - Everything Is Changed (1990) {Sunnyside SSC 1020D} [CD]

1987 Kirk Lightsey Quartet - Everything Is Changed (1990) {Sunnyside SSC 1020D} [CD]
Треклист:

01. Everything Is Change(d)
02. Bille's Bounce
03. Estate
04. Evidence
05. Nandi
06. Alone Together
07. Lament
08. Blues on the Corner

Жанр: Jazz, Post Bop
Носитель: CD
Страна-производитель диска (релиза): France
Год издания: 1990 (1987)
Издатель (лейбл): Sunnyside
Номер по каталогу: SSC 1020D
Страна исполнителя (группы): US
Аудиокодек: FLAC (*.flac)
Тип рипа: tracks+.cue
Битрейт аудио: lossless
Продолжительность: 01:07:19
Источник: собственный рип
Наличие сканов в содержимом раздачи: нет

Лог создания рипа
Exact Audio Copy V1.3 from 2. September 2016

EAC extraction logfile from 27. January 2019, 19:02

Kirk Lightsey Quartet / Everything Is Changed

Used drive  : PLEXTOR DVDR   PX-891SA   Adapter: 1  ID: 0

Read mode               : Secure
Utilize accurate stream : Yes
Defeat audio cache      : Yes
Make use of C2 pointers : No

Read offset correction                      : 6
Overread into Lead-In and Lead-Out          : No
Fill up missing offset samples with silence : Yes
Delete leading and trailing silent blocks   : No
Null samples used in CRC calculations       : Yes
Used interface                              : Native Win32 interface for Win NT & 2000
Gap handling                                : Appended to previous track

Used output format              : User Defined Encoder
Selected bitrate                : 1024 kBit/s
Quality                         : High
Add ID3 tag                     : No
Command line compressor         : C:\Program Files (x86)\Exact Audio Copy\FLAC\FLAC.EXE
Additional command line options : -8 -V -T "ARTIST=%artist%" -T "TITLE=%title%" -T "ALBUM=%albumtitle%" -T "DATE=%year%" -T "TRACKNUMBER=%tracknr%" -T "GENRE=%genre%" -T "COMMENT=%comment%" -T "BAND=%albuminterpret%" -T "ALBUMARTIST=%albuminterpret%" -T "COMPOSER=%composer%" %haslyrics%--tag-from-file=LYRICS="%lyricsfile%"%haslyrics% -T "DISCNUMBER=%cdnumber%" -T "TOTALDISCS=%totalcds%" -T "TOTALTRACKS=%numtracks%" %hascover%--picture="%coverfile%"%hascover% %source% -o %dest%

TOC of the extracted CD

     Track |   Start  |  Length  | Start sector | End sector
    ---------------------------------------------------------
        1  |  0:00.33 |  7:09.12 |        33    |    32219
        2  |  7:09.45 |  6:40.53 |     32220    |    62272
        3  | 13:50.23 | 11:35.17 |     62273    |   114414
        4  | 25:25.40 |  6:39.68 |    114415    |   144407
        5  | 32:05.33 | 11:24.15 |    144408    |   195722
        6  | 43:29.48 |  7:25.52 |    195723    |   229149
        7  | 50:55.25 | 11:02.35 |    229150    |   278834
        8  | 61:57.60 |  5:21.48 |    278835    |   302957

Track  1

     Filename H:\Torrents\Lightsey, Kirk\Kirk Lightsey Quartet (1987-1990) [SSC 1020D] Everything Is Changed\01. Everything Is Change(d).wav

     Pre-gap length  0:00:02.33

     Peak level 40.0 %
     Extraction speed 6.0 X
     Track quality 100.0 %
     Test CRC 6CE9C418
     Copy CRC 6CE9C418
     Accurately ripped (confidence 3)  [4FC39371]  (AR v2)
     Copy OK

Track  2

     Filename H:\Torrents\Lightsey, Kirk\Kirk Lightsey Quartet (1987-1990) [SSC 1020D] Everything Is Changed\02. Bille's Bounce.wav

     Pre-gap length  0:00:04.02

     Peak level 64.3 %
     Extraction speed 6.1 X
     Track quality 99.9 %
     Test CRC BB4343E6
     Copy CRC BB4343E6
     Accurately ripped (confidence 3)  [82D5A4E9]  (AR v2)
     Copy OK

Track  3

     Filename H:\Torrents\Lightsey, Kirk\Kirk Lightsey Quartet (1987-1990) [SSC 1020D] Everything Is Changed\03. Estate.wav

     Pre-gap length  0:00:03.73

     Peak level 33.0 %
     Extraction speed 7.7 X
     Track quality 99.9 %
     Test CRC 283F5F30
     Copy CRC 283F5F30
     Accurately ripped (confidence 3)  [9312D321]  (AR v2)
     Copy OK

Track  4

     Filename H:\Torrents\Lightsey, Kirk\Kirk Lightsey Quartet (1987-1990) [SSC 1020D] Everything Is Changed\04. Evidence.wav

     Pre-gap length  0:00:04.62

     Peak level 49.2 %
     Extraction speed 8.9 X
     Track quality 100.0 %
     Test CRC F5410A4E
     Copy CRC F5410A4E
     Accurately ripped (confidence 3)  [1D5FB00D]  (AR v2)
     Copy OK

Track  5

     Filename H:\Torrents\Lightsey, Kirk\Kirk Lightsey Quartet (1987-1990) [SSC 1020D] Everything Is Changed\05. Nandi.wav

     Pre-gap length  0:00:02.55

     Peak level 56.0 %
     Extraction speed 10.1 X
     Track quality 100.0 %
     Test CRC 848CEBFA
     Copy CRC 848CEBFA
     Accurately ripped (confidence 3)  [581B327F]  (AR v2)
     Copy OK

Track  6

     Filename H:\Torrents\Lightsey, Kirk\Kirk Lightsey Quartet (1987-1990) [SSC 1020D] Everything Is Changed\06. Alone Together.wav

     Pre-gap length  0:00:03.35

     Peak level 72.3 %
     Extraction speed 10.6 X
     Track quality 100.0 %
     Test CRC 57F60159
     Copy CRC 57F60159
     Accurately ripped (confidence 3)  [52893439]  (AR v2)
     Copy OK

Track  7

     Filename H:\Torrents\Lightsey, Kirk\Kirk Lightsey Quartet (1987-1990) [SSC 1020D] Everything Is Changed\07. Lament.wav

     Pre-gap length  0:00:03.25

     Peak level 44.5 %
     Extraction speed 11.7 X
     Track quality 100.0 %
     Test CRC EE3978B7
     Copy CRC EE3978B7
     Accurately ripped (confidence 3)  [6D4B1B8D]  (AR v2)
     Copy OK

Track  8

     Filename H:\Torrents\Lightsey, Kirk\Kirk Lightsey Quartet (1987-1990) [SSC 1020D] Everything Is Changed\08. Blues on the Corner.wav

     Pre-gap length  0:00:03.10

     Peak level 78.1 %
     Extraction speed 11.5 X
     Track quality 100.0 %
     Test CRC F8E8FB18
     Copy CRC F8E8FB18
     Accurately ripped (confidence 3)  [C784D25D]  (AR v2)
     Copy OK

All tracks accurately ripped

No errors occurred

End of status report

==== Log checksum F8482FD08217DBBB20BD5506D40A8200C4BFAFB20D0900662994AE2054423C21 ====
Содержание индексной карты (.CUE)
REM GENRE Jazz
REM DATE 1990
REM DISCID 660FC708
REM COMMENT "ExactAudioCopy v1.3"
CATALOG 0000000000000
PERFORMER "Kirk Lightsey Quartet"
TITLE "Everything Is Changed"
REM COMPOSER ""
FILE "01. Everything Is Change(d).wav" WAVE
  TRACK 01 AUDIO
    TITLE "Everything Is Change(d)"
    PERFORMER "Kirk Lightsey Quartet"
    REM COMPOSER ""
    FLAGS PRE
    PREGAP 00:00:33
    INDEX 01 00:00:00
  TRACK 02 AUDIO
    TITLE "Bille's Bounce"
    PERFORMER "Kirk Lightsey Quartet"
    REM COMPOSER ""
    FLAGS PRE
    INDEX 00 07:05:10
FILE "02. Bille's Bounce.wav" WAVE
    INDEX 01 00:00:00
  TRACK 03 AUDIO
    TITLE "Estate"
    PERFORMER "Kirk Lightsey Quartet"
    REM COMPOSER ""
    FLAGS PRE
    INDEX 00 06:36:55
FILE "03. Estate.wav" WAVE
    INDEX 01 00:00:00
  TRACK 04 AUDIO
    TITLE "Evidence"
    PERFORMER "Kirk Lightsey Quartet"
    REM COMPOSER ""
    FLAGS PRE
    INDEX 00 11:30:30
FILE "04. Evidence.wav" WAVE
    INDEX 01 00:00:00
  TRACK 05 AUDIO
    TITLE "Nandi"
    PERFORMER "Kirk Lightsey Quartet"
    REM COMPOSER ""
    FLAGS PRE
    INDEX 00 06:37:13
FILE "05. Nandi.wav" WAVE
    INDEX 01 00:00:00
  TRACK 06 AUDIO
    TITLE "Alone Together"
    PERFORMER "Kirk Lightsey Quartet"
    REM COMPOSER ""
    FLAGS PRE
    INDEX 00 11:20:55
FILE "06. Alone Together.wav" WAVE
    INDEX 01 00:00:00
  TRACK 07 AUDIO
    TITLE "Lament"
    PERFORMER "Kirk Lightsey Quartet"
    REM COMPOSER ""
    FLAGS PRE
    INDEX 00 07:22:27
FILE "07. Lament.wav" WAVE
    INDEX 01 00:00:00
  TRACK 08 AUDIO
    TITLE "Blues on the Corner"
    PERFORMER "Kirk Lightsey Quartet"
    REM COMPOSER ""
    FLAGS PRE
    INDEX 00 10:59:25
FILE "08. Blues on the Corner.wav" WAVE
    INDEX 01 00:00:00
Download available for power users only.
16:14
325
Нет комментариев. Ваш будет первым!